Fun Size [DvdRip][Latino][2012][Comedia][Zs]



Hola Usuaarios e Invitados, son bienvenidos a descargar lo que les plasca de mis aportes, estoy pensando en meterme en eso de ser uploader de series de estreno asi que de vez en cuando subire peliculas como ahora

[/size]








Los planes de Wren para acudir a una fiesta de halloween que celebra el chico que le gusta peligran cuando tiene que quedarse a cargo de su hermano pequeño, un bicho raro que pronto desaparece.

[/font][/size][/color]



[/font][/size][/color]

Título: Diversión XL
Título original: Fun Size
País: USA 
Estreno en USA: 26/10/2012 
Estreno en España: 
Lanzamiento en DVD (alquiler): 27/03/2013 
Estreno en DVD (venta): 27/03/2013 
Estreno en Blu-ray: 27/03/2013 
Productora: Anonymous Content, Fake Empire 
Director: Josh Schwartz 
Guión: Max Werner 
Reparto: Victoria Justice, Thomas Mann, Thomas McDonell, Thomas Middleditch, Chelsea Handler




Complete name417802fz[XD].avi
Format  : AVI
Format/Info: Audio Video Interleave
File size: 771 MiB
Duration   : 1h 26mn
Overall bit rate: 1 248 Kbps
Writing application    : Lavf51.12.1

Video
ID   : 0
Format    : MPEG-4 Visual
Format profile: [email protected]
Format settings, BVOP : No
Format settings, QPel  : No
Format settings, GMC: No warppoints
Format settings, Matrix   : Default (H.263)
Codec ID : DX50
Codec ID/Hint : DivX 5
Duration   : 1h 26mn
Bit rate : 908 Kbps
Width: 852 pixels
Height  : 368 pixels
Display aspect ratio: 2.35:1
Frame rate: 59.940 fps
Color space: YUV
Chroma subsampling: 4:2:0
Bit depth: 8 bits
Scan type: Progressive
Compression mode : Lossy
Bits/(Pixel*Frame): 0.048
Stream size  : 561 MiB (73%)
Writing library: Lavc51.40.4

Audio
ID  : 1
Format: MPEG Audio
Format version: Version 1
Format profile: Layer 3
Mode: Joint stereo
Codec ID : 55
Codec ID/Hint: MP3
Duration : 1h 26mn
Bit rate mode: Constant
Bit rate: 320 Kbps
Channel(s): 2 channels
Sampling rate : 44.1 KHz
Compression mode: Lossy
Stream size : 198 MiB (26%)
Alignment : Aligned on interleaves
Interleave, duration : 26 ms (1.57 video frames)
Writing library : LAME3.97


[/font][/size][/color]








[/font][/size][/color]




[/b][/font][/size][/color]




[/font][/size][/color]


Fun Size [DvdRip][Latino][2012][Comedia][Zs]
0 Puntos Score: 0/10
Visitas: 2399 Favoritos: 5
9 Comentarios Fun Size [DvdRip][Latino][2012][Comedia][Zs]
Veremos que tal!!!! Gracias....
Gracias, descargando
COMO SE DESCARGA KE NO SALEN LOS LINKS CUANDO TERMINA EL KONTEO
igual me paso a mi
thanks por el aporte man... pero la neta borre la movie cuando abri el video, no queria creerlo por las capturas que pusiste, pero para lo que pesa el video la compresion esta del asco...   Bit rate 908 Kbps todo el tiempo se pixelea, pero eso si, segun le dejaron el audio a 320 kbps... se me quitaron las ganas de verla y la borre...   por lo demas buen post buen server... pero lastima de video...
Muchas gracias, se ve divertida!!  
Grx x el aporte    
Perdon a todos es que recien habia salido en dvdrip, sel as conseguire en blurayrip latino y se las subo
Para dejar un comentario Registrate! o.. eres ya usuario? Accede!