Oops.. Este post tiene los enlaces eliminados!

Identi revisa las denuncias de los usuarios en busca de enlaces eliminados que no dejan descargar los archivos, este mensaje te informa que este post que estas viendo tiene los enlaces eliminados.

Usa el Buscador

Por favor, te recomendamos que uses el buscador para encontrar más alternativas.

ACDC Live At River Plate 2009 [BDRip 720p DTS 5.1]

  • Categoría: Reciclaje
  • Publicado hace más de 3 años


ACDC Live At River Plate 2009
BDRip 720p | Audio Ingles DTS-5.1 768 KBps | 3.7 GB


ACDC LIVE AT RIVER PLATE recital masivo de AC / DC ?s en la gira Black Ice World Tour. Filmada en diciembre de 2009 con 32 cámaras en alta definición impresionante, marcando su regreso triunfal a Buenos Aires.Un recital que te va a poner los pelos de punta, con una calidad de video y audio extraordinaria y si sos fanatico de la banda ,no podes dejar de tener. Este rip lo hice tomando como fuente AC DC ? Live At River Plate 2011 BD Remux 1080p DTS LPCM.esta de mas decir que soy fanatico de esta banda XD. Que lo disfruten tanto como yo.

Informacion del Video
Source???..: AC DC Live At River Plate 2011 BD Remux 1080p DTS, LPCM (rutracker)
Container/Format.: Matroska/H.264
File size??..: 3.7 GB
Length???..: 01:51:38
Video bit rate?: 4000
Display AR??.: 1280/720
Frame rate??.: 23.976 fps
AUDIO????: ENG DTS-5.1 768 KBps
Encoder???.: HighCode
Encoding settings: High (ref=9,bframes=9,subme=10,me_range=64,rc_lookahead=100,rc=2pass vrb)

General
Complete name : ACDC. Live.At. River.Plate 2009.BDRip.720p.by.almacervecera.mkv
Format : Matroska
Format version : Version 2
File size : 3.71 GiB
Duration : 1h 51mn
Overall bit rate : 4 756 Kbps
Movie name : AC?DC. Live.At. River.Plate 2009.BDRip.720p.by.almacervecera
Encoded date : UTC 2013-02-08 03:36:21
Writing application : mkvmerge v3.4.0 (?Rapunzel?) built on May 15 2010 09:38:20
Writing library : libebml v0.8.0 + libmatroska v0.9.0

Video
ID : 1
Format : AVC
Format/Info : Advanced Video Codec
Format profile : [email protected]
Format settings, CABAC : Yes
Format settings, ReFrames : 9 frames
Codec ID : V_MPEG4/ISO/AVC
Duration : 1h 51mn
Bit rate : 4 000 Kbps
Width : 1 280 pixels
Height : 720 pixels
Display aspect ratio : 16:9
Frame rate mode : Constant
Frame rate : 23.976 fps
Color space : YUV
Chroma subsampling : 4:2:0
Bit depth : 8 bits
Scan type : Progressive
Bits/(Pixel*Frame) : 0.181
Stream size : 3.05 GiB (82%)
Title : by almacervecera
Writing library : x264 core 120
Language : English
Default : No
Forced : No
Color primaries : BT.709
Transfer characteristics : BT.709
Matrix coefficients : BT.709

Audio
ID : 2
Format : DTS
Format/Info : Digital Theater Systems
Mode : 16
Format settings, Endianness : Big
Codec ID : A_DTS
Duration : 1h 51mn
Bit rate mode : Constant
Bit rate : 755 Kbps
Channel(s) : 6 channels
Channel positions : Front: L C R, Side: L R, LFE
Sampling rate : 48.0 KHz
Bit depth : 24 bits
Compression mode : Lossy
Delay relative to video : 11ms
Stream size : 602 MiB (16%)
Title : DTS-5.1 768 KB/s
Language : English
Default : No
Forced : No

Menu
00:00:00.000 : en:Concert Opens
00:01:13.490 : en:01. Rock N Roll Train
00:05:43.468 : en:02. Hell Ain?t A Bad Place To Be
00:10:00.016 : en:03. Back In Black
00:14:10.183 : en:04. Big Jack
00:18:12.174 : en:05. Dirty Deeds Done Dirt Cheap
00:22:58.127 : en:06. Shot Down In Flames
00:26:29.046 : en:07. Thunderstruck
00:32:05.841 : en:08. Black Ice
00:35:39.429 : en:09. The Jack
00:46:24.615 : en:10. Hells Bells
00:52:00.659 : en:11. Shoot To Thrill
00:57:52.886 : en:12. War Machine
01:01:15.005 : en:13. Dog Eat Dog
01:05:52.740 : en:14. You Shook Me All Night Long
01:09:44.097 : en:15. T.N.T.
01:13:40.791 : en:16. Whole Lotta Rosie
01:19:21.340 : en:17. Let There Be Rock
01:37:05.153 : en:18. Highway To Hell
01:41:48.185 : en:19. For Those About To Rock (We Salute You)
01:49:05.105 : en:Credits

Listado de la pista incluyen
Concert Opens
01. Rock N Roll Train
02. Hell Ain?t A Bad Place To Be
03. Back In Black
04. Big Jack
05. Dirty Deeds Done Dirt Cheap
06. Shot Down In Flames
07. Thunderstruck
08. Black Ice
09. The Jack
10. Hells Bells
11. Shoot To Thrill
12. War Machine
13. Dog Eat Dog
14. You Shook Me All Night Long
15. T.N.T.
16. Whole Lotta Rosie
17. Let There Be Rock
Credits

Capturas

















Sin contraseña | Facil Extraction |  Links Intercambiables





ACDC Live At River Plate 2009 [BDRip 720p DTS 5.1]
0 Puntos Score: 0/10
Visitas: 2664 Favoritos: 4
14 Comentarios ACDC Live At River Plate 2009 [BDRip 720p DTS 5.1]
muchas gracias hermano,,tengo tiempo que queria este concierto,,,soy novato y no tengo puntos para darte,,,pero te doy un 10  
Cita misho: Mostrar
no e hagas problemas por los puntos, solo con un gracias para mi esta mas que bien, si te gusta el ripeo que hice , te pido que entres para comentar, y asi un usuario que aun no lo ha bajado se anima, y gracias a vos por visitar mi post
Exelente aporte mi amigo...lo tengo en full dvd,pero en 720 es otra cosa!!! Una reliquia para los que estuvimos ahi!!!
Tremendo Concierto y en la Mejor Calidad... Gracias Capo        
Cita matiasvo: Mostrar
si esta calidad nada que ver no es porque yo hice el rip, pero me quedo mejor de lo que pensaba, se escucha de primera y se ve mejor, probado en un led de 42 pulgadas con un home 7.1 al palo te vuela la cabeza creemelo, y te comento aparesco en ese video en una toma de cerca XDDDDDDDDDD
gracias por el aporte amigo lo malo esque tengo problemas con el ultimo link
grande gracias loco .
ayuda con el ultimo link... temporalmente unavailable  
es cierto aqui mi compa vela tiene razon no cirve el ultimo link ayuda
Amigo gracias por el aporte!! una consulta, yo quiero grabar el recital en un dvd pero ya probre con un par de programas y al grabarlo no se puede saltar de tema, que programa me recomendas para grabarlo bien??
saludos
hola amigo podrias resubir los links ?
Para dejar un comentario Registrate! o.. eres ya usuario? Accede!