Evangelion 2.22 You Can Not Advance Mediafire

 
Argumento: Evangelion 2.0: You Can (Not) Advance (????????????: ? Evangerion Shin Gekij?ban: Ha, literalmente "Evangelion nueva versión teatral: Ruptura" ) es una película animada japonesa del 2009, escrita por Hideaki Anno. Es la segunda de cuatro películas que se lanzarán en la tetralogía Rebuild of Evangelion (Reconstrucción de Evangelion), basadas en la serie original de anime Neon Genesis Evangelion. Fue producida y co-distribuida por el Studio Khara de Hideaki Anno.

Formato: MKV (Matroska Video) -Usen K-Lite Codec Pack si no pueden verlo-
Duración: 1h 52min
Tamaño: 1.7GB (es la versión ANISAB-DVD)
Resolución: 848x480

Media Info:

Complete name: [ANISAB-DVD] Evangelion 2.22 You Can (Not) Advance [DVD-rip 848x480 x264 ac3 6ch].mkv
Format: Matroska
File size : 1.70 GiB
Duration : 1h 52mn
Overall bit rate: 2 177 Kbps
Encoded date: UTC 2010-05-23 18:12:58
Writing application: mkvmerge v2.4.0 ('Fumbling Towards Ecstasy') built on Oct 11 2008 20:13:15
Writing library : libebml v0.7.7 + libmatroska v0.8.1

Video
ID : 1
Format: AVC
Format/Info : Advanced Video Codec
Format profile : [email protected]
Format settings, CABAC : Yes
Format settings, ReFrames : 3 frames
Muxing mode: Container [email protected]
Codec ID : V_MPEG4/ISO/AVC
Duration : 1h 52mn
Bit rate: 1 749 Kbps
Nominal bit rate : 1 800 Kbps
Width : 848 pixels
Height : 480 pixels
Display aspect ratio: 16:9
Frame rate: 23.976 fps
Resolution : 8 bits
Colorimetry : 4:2:0
Scan type: Progressive
Bits/(Pixel*Frame): 0.179
Stream size : 1.37 GiB (80%)
Writing library : x264 core 65 r999kMod cc51047
Encoding settings: cabac=1 / ref=3 / deblock=1:0:0 / analyse=0x1:0 / me=dia / subme=9 / psy_rd=1.0:0.0 / mixed_ref=1 / me_range=16 / chroma_me=1 / trellis=1 / 8x8dct=0 / cqm=0 / deadzone=21,11 / chroma_qp_offset=-2 / threads=2 / thread_queue=2 / nr=0 / decimate=1 / mbaff=0 / bframes=3 / b_pyramid=0 / b_adapt=1 / b_bias=0 / direct=1 / wpredb=0 / keyint=250 / keyint_min=25 / scenecut=40(pre) / rc=abr / bitrate=1800 / ratetol=1.0 / qcomp=0.60 / qpmin=10 / qpmax=51 / qpstep=4 / ip_ratio=1.40 / pb_ratio=1.30 / aq=1:1.00

Audio
ID : 2
Format: AC-3
Format/Info : Audio Coding 3
Format_Settings_ModeExtension : CM (complete main)
Codec ID : A_AC3
Duration : 1h 52mn
Bit rate mode: Constant
Bit rate: 384 Kbps
Channel(s): 6 channels
Channel positions: Front: L C R, Side: L R, LFE
Sampling rate : 48.0 KHz
Stream size : 308 MiB (18%)

Imagenes






Descarga Mediafire

Evangelion 2.22 You Can (Not) Advance [RAW] by 3rick.part01.rar
http://www.mediafire.com/file/9jybdcrt2jz

Evangelion 2.22 You Can (Not) Advance [RAW] by 3rick.part02.rar
http://www.mediafire.com/file/yflwo5xpmd1

File name: Evangelion 2.22 You Can (Not) Advance [RAW] by 3rick.part03.rar
http://www.mediafire.com/file/jxbzz2jymgw

Evangelion 2.22 You Can (Not) Advance [RAW] by 3rick.part04.rar
http://www.mediafire.com/file/wmdwccwkdvm

Evangelion 2.22 You Can (Not) Advance [RAW] by 3rick.part05.rar
http://www.mediafire.com/file/bnmemhzhb1l

Evangelion 2.22 You Can (Not) Advance [RAW] by 3rick.part06.rar
http://www.mediafire.com/file/9v40uyozcgs

Evangelion 2.22 You Can (Not) Advance [RAW] by 3rick.part07.rar
http://www.mediafire.com/file/yt1mnviwhbd

Evangelion 2.22 You Can (Not) Advance [RAW] by 3rick.part08.rar
http://www.mediafire.com/file/ym3jownemnj

Evangelion 2.22 You Can (Not) Advance [RAW] by 3rick.part09.rar
http://www.mediafire.com/file/3vonuz2tdsw

Evangelion 2.22 You Can (Not) Advance [RAW] by 3rick.part10.rar
http://www.mediafire.com/file/jvngrtwbxpo



Pd: Primer post que posteo algo no subido por mi pero la emocion de ver esta peli
la queria compartir
Evangelion 2.22 You Can Not Advance Mediafire
0 Puntos Score: 0/10
Visitas: 4366 Favoritos: 4
0 Comentarios Evangelion 2.22 You Can Not Advance Mediafire
Este post no tiene comentarios. Sea el primero!
Para dejar un comentario Registrate! o.. eres ya usuario? Accede!