Búsqueda Implacable 2 [BrRip Latino 720p] [ZS]

En mi segundo post, les traigo ésta película: 


?


Búsqueda Implacable 2



Género: Acción, Crimen, Drama
 
Actores: Liam Neeson, Famke Janssen, Maggie Grace


Tamaño de Archivo : 1.20 GiB
Duración : 1h 32mn
Tasa de bits : 2 095 Kbps

Video
ID : 0
Codec ID : XVID
Codec ID/Hint : XviD
Duration : 1h 32mn
Bit rate : 1 704 Kbps
Width : 720 pixels
Height : 304 pixels
Display aspect ratio : 2.35:1
Frame rate : 23.976 fps
Color space : YUV
Chroma subsampling : 4:2:0
Bit depth : 8 bits
Scan type : Progressive
Compression mode : Lossy
Bits/(Pixel*Frame) : 0.325
Stream size : 1.10 GiB (81%)
Writing library : XviD 64

Audio
ID : 1
Format : AC-3
Format/Info : Audio Coding 3
Mode extension : CM (complete main)
Format settings, Endianness : Big
Codec ID : 2000
Duration : 1h 32mn
Bit rate mode : Constant
Bit rate : 384 Kbps
Channel(s) : 6 channels
Channel positions : Front: L C R, Side: L R, LFE
Sampling rate : 44.1 KHz
Bit depth : 16 bits
Compression mode : Lossy
Stream size : 253 MiB (18%)



El padre de uno de los secuestradores albaneses que tuvieron en jaque al protagonista en el primer film jura vengarse, y aprovecha las vacaciones de la familia Mills en Estambul para llevar a cabo su plan. El ex agente de la CIA Bryan Mills (Liam Neeson) tendrá que volver a demostrar todas sus habilidades para salvar, esta vez, tanto la vida de su mujer y su hija como la suya propia.




[/color]


* Contraseña del RAR *
NunkMas




Agradecer no cuesta nada, Saludos.

Búsqueda Implacable 2 [BrRip Latino 720p] [ZS]
0 Puntos Score: 0/10
Visitas: 1222 Favoritos: 2
1 Comentarios Búsqueda Implacable 2 [BrRip Latino 720p] [ZS]
la parte 13 no funciona
Para dejar un comentario Registrate! o.. eres ya usuario? Accede!