Oops.. Este post tiene los enlaces eliminados!

Identi revisa las denuncias de los usuarios en busca de enlaces eliminados que no dejan descargar los archivos, este mensaje te informa que este post que estas viendo tiene los enlaces eliminados.

Usa el Buscador

Por favor, te recomendamos que uses el buscador para encontrar más alternativas.

Mama 2013 WEBRip.720P.Xvid.[Subt.Español] (Terror)

  • Categoría: Reciclaje
  • Publicado hace más de 3 años


SINOPSIS


Hace cinco años, el mismo día en que su madre fue asesinada, Victoria y Lilly desaparecieron en el bosque. Buscadas incansablemente por su tío Lucas (Nikolai Coster-Waldau) y su novia Annabel (Jessica Chastain), mucho tiempo después fueron rescatadas. Comienzan entonces una nueva vida de la mano de Annabel, pero pronto descubren que alguien o algo misterioso las sigue arropando por las noches. (FILMAFFINITY)


INFORMACION


TÍTULO ORIGINAL Mama
AÑO 2013
DURACIÓN 100 min.
PAÍS [España]
DIRECTOR Andrés Muschietti
GUIÓN Andrés Muschietti, Neil Cross, Barbara Muschietti
MÚSICA Fernando Velázquez
FOTOGRAFÍA Antonio Riestra
REPARTO Jessica Chastain, Nikolaj Coster-Waldau, Megan Charpentier, Isabelle Nelisse
PRODUCTORA Coproducción España-Canadá; Entertainment One
GÉNERO Terror. Thriller | Sobrenatural. Fantasmas

    

Source:Mama.2013.WEBRip.720P.Xvid-SmY...THX
Audio:Ingles/Subtitulo Español

Format : AVI
Format/Info : Audio Video Interleave
File size : 1,9.GB
Duration : 1h 39mn
Overall bit rate : 2 000 Kbps
Writing application : Lavf52.84.0
Writing library : VirtualDub build 33848/release
Video
ID : 0
Format : MPEG-4 Visual
Format profile : Advanced [email protected]
Format settings, BVOP : Yes
Format settings, QPel : No
Format settings, GMC : No warppoints
Format settings, Matrix : Default (H.263)
Muxing mode : Packed bitstream
Codec ID : XVID
Codec ID/Hint : XviD
Duration : 1h 39mn
Bit rate : 1 796 Kbps
Width : 720 pixels
Height : 400 pixels
Display aspect ratio : 16:9
Frame rate : 29.970 fps
Color space : YUV
Chroma subsampling : 4:2:0
Bit depth : 8 bits
Scan type : Progressive
Bits/(Pixel*Frame) : 0.208
Stream size : 1.25 GiB (90%)
Writing library : XviD 1.2.1 (UTC 2008-12-04)
Audio
ID : 1
Format : MPEG Audio
Format version : Version 1
Format profile : Layer 3
Mode : Joint stereo
Mode extension : MS Stereo
Codec ID : 55
Codec ID/Hint : MP3
Duration : 1h 39mn
Bit rate mode : Constant
Bit rate : 192 Kbps
Channel(s) : 2 channels
Sampling rate : 48.0 KHz
Stream size : 137 MiB (10%)
Alignment : Split accross interleaves
Interleave, duration : 33 ms (1.00 video frame)
Interleave, preload duration : 500 ms
Writing library : LAME3.98.2
Workdone:
The webrip was nice besides the foreign subtitles in it and the freeze
 footage. There wasnt really anything we could do about the subtitles but
we got rit of the watermark on the top right corner and fix the freeze
 footage with MATiNE 720p. Turn out very nice. We did the usual filter on
both videos and audio was not touch...




TRAILER




DOWNLOAD











Mama 2013 WEBRip.720P.Xvid.[Subt.Español] (Terror)
5 Puntos Score: 5/10
Visitas: 3318 Favoritos: 2
Ver los usuarios que votaron...
8 Comentarios Mama 2013 WEBRip.720P.Xvid.[Subt.Español] (Terror)
muy bonito pero podrias poner unas caps para saber k vamos a bajar gracias
Cita torner_rui: Mostrar
la calidad es excelente..yo la vi
MUCHAS GRACIAS POR EL APORTE SE VE MUY BIEN Y SE TE DESEA MUCHO EXITO
Descargada man!!! Muy buen aporte, te dejo algunos puntos, gracias!!!
y las caps pero gracias por el esfurzo a oyes  es la que aparecen letras chinas
Aparecen los subtitulos chinos?
@OSMOL de donde sacaste ese avatar, que gracioso  
Este post esta cerrado y no se permiten comentarios.
Para dejar un comentario Registrate! o.. eres ya usuario? Accede!