Asesinos de Elite [Killer Elite][Latino][DvdRip]

[/color][/size]

Hola Usuarios de Identi ahora les dejo una pelicula muy buena de accion, es breve la intrduccion ya que te tengo que salir pero aqui la pelicula


[/color][/size]











Danny, un antiguo miembro del SEAL, el grupo de operaciones especiales de la armada de los Estados Unidos, se ve obligado a abandonar su autoimpuesto exilio para volver a reunir a su equipo, compuesto entre otros por Hunter, para una confrontación sin restricciones con Spike, que está protegiendo a una célula de soldados renegados provenientes de otra de las unidades militares más temidas que existen, el Servicio Especial Aéreo británico (SAS). Danny, que lleva una vida tranquila y que acaba de encontrar el amor en Anne, se ve forzado a realizar una hazaña casi imposible de venganza y salvación personal. Con Hunter en grave peligro, deberá destruir la célula de renegados antes de que estos provoquen una debacle política a nivel mundial.


Título: Asesinos de élite
Título original: Killer Elite
País: USA, Australia 
Estreno en USA: 23/09/2011 
Estreno en España: 18/11/2011 
Lanzamiento en DVD (alquiler): 21/03/2012 
Estreno en DVD (venta): 16/05/2012 
Estreno en Blu-ray: 16/05/2012 
Productora: Omnilab Media, Ambience Entertainment Melbourne, Ambience Entertainment 
Director: Gary McKendry 
Guión: Gary McKendry, Matt Sherring 
Reparto: Clive Owen, Robert De Niro, Jason Statham, Dominic Purcell, Yvonne Strahovski, Aden Young, Ben Mendelsohn, Adewale Akinnuoye-Agbaje, Firass Dirani, Lachy Hulme, Grant Bowler, David Whiteley, Matt Nable, Nick Tate, Bille Brown, Stewart Morritt, Michael Dorman, Daniel Roberts, Rodney Afif
Calificación: No recomendada para menores de 12 años




Complete name: C:4s3s1n0$$D33l1t3[[email protected]][DvdRip][Ekisde].avi
Format: AVI
Format/Info: Audio Video Interleave
File size : 625 MiB
Duration : 1h 55mn
Overall bit rate: 754 Kbps
Writing application : Lavf51.12.1

Video
ID : 0
Format: MPEG-4 Visual
Format profile : [email protected]
Format settings, BVOP: No
Format settings, QPel: No
Format settings, GMC: No warppoints
Format settings, Matrix: Default (H.263)
Codec ID : DX50
Codec ID/Hint: DivX 5
Duration: 1h 55mn
Bit rate  : 421 Kbps
Width: 640 pixels
Height  : 272 pixels
Display aspect ratio: 2.35:1
Frame rate: 25.000 fps
Color space: YUV
Chroma subsampling : 4:2:0
Bit depth: 8 bits
Scan type: Progressive
Compression mode: Lossy
Bits/(Pixel*Frame) : 0.097
Stream size : 350 MiB (56%)
Writing library: Lavc51.40.4

Audio
ID : 1
Format: MPEG Audio
Format version: Version 1
Format profile: Layer 3
Mode: Joint stereo
Mode extension: MS Stereo
Codec ID: 55
Codec ID/Hint: MP3
Duration   : 1h 55mn
Bit rate mode: Constant
Bit rate  : 320 Kbps
Channel(s) : 2 channels
Sampling rate : 44.1 KHz
Compression mode : Lossy
Stream size: 266 MiB (42%)
Alignment: Aligned on interleaves
Interleave, duration: 26 ms (0.65 video frame)
Writing library: LAME3.97












[/size][/font][/color]









Unir con hjplist y descomprimir con el 7z de preferencia

aqui te dejo el hjsplit y el 7z













Asesinos de Elite [Killer Elite][Latino][DvdRip]
20 Puntos Score: 6.7/10
Visitas: 10500 Favoritos: 5
Ver los usuarios que votaron...
12 Comentarios Asesinos de Elite [Killer Elite][Latino][DvdRip]
gracias bajando.  
por que no puedo ver los link de la pelicula me parece los segundo y luego se queda en rojo y diciendo ya puedes descargar
Gracias por el aporte dzkrgando je ...  
se ve chida la pelicula gracias
@C2807 @Apoklipsis @Chavely @power33 Muchas gracias por pasar  
@ghaspar Ok. creo que tienes un problema, te mando un mp con los links de descarga
yo tambien tengo el mismo problema que ghaspar.. pasan losdegundos y se queda el mensaje de ya pedes descargar en rojo u.u me puede smandar los links de too  pliz
muchas gracias por enviarme los links te lo agradesco karnal  
@eliot0630 Solo tengo esta, dejame ver si puedo conseguirte algun hdrip o brrip a 720 te mando un MP si la consigo
Eliot por favor note olvides de mi Nuria, con lo del realplayer, de deje mi correo, pero no me ha llegado nada,
gracias de antemano
muchas gracias  
excelente GRACIAS    
Para dejar un comentario Registrate! o.. eres ya usuario? Accede!