Buscando un Amigo Para el Fin del Mundo (Dual 720)

Buscando un Amigo Para el Fin del Mundo (Dual 720)







Buscando un Amigo Para el Fin del Mundo (Seeking A Friend For The End Of The World)
Año: 2012 
Duración: 101 min. 
Director: Lorene Scafaria 
Guión: Lorene Scafaria 
Reparto: Keira Knightley ? Steve Carell ? Adam Brody ? William Petersen ? Rob Corddry ? Derek Luke ? Patton Oswalt ? Gillian Jacobs ? Natalie Gal ? Connie Britton ? Melanie Lynskey ? Martin Sheen 
Productora: Anonymous Content / Indian Paintbrush / Mandate Pictures 
Género: Romance | Comedia. Fantástico 

 

Video: MP4 Audio Dual: Español Ingles 

Subtitulos: Incluidos

Resolución: 1280 * 544

Tamaño: 1.04 GB



General
 
Complete name:                          
Seeking.a.Friend.For.The.End.of.The.World.2012.720p.BRrip.x264.Dual.mp4
 
Format                                   : MPEG-4
 
Format profile                           : Base Media / Version 2
 
Codec ID                                 : mp42
 
File size                                : 990 MiB
 
Duration                                 : 1h 41mn
 
Overall bit rate mode                    : Variable
 
Overall bit rate                         : 1 370 Kbps
 
Movie name                               : Seeking a Friend for the End of the World
 
Performer                                : Keira Knightley, Steve Carell, Melanie Lynskey, Patton Oswalt, Martin Sheen, William Petersen, Rob Corddry, Gillian Jacobs, Adam Brody
 
Genre                                    : Comedy, Drama, Romance, Science Fiction
 
Recorded date                            : 2012-06-22
 
Encoded date                             : UTC 2012-12-22 18:30:44
 
Tagged date                              : UTC 2013-01-30 21:36:32
 
Cover                                    : Yes
 
desc                                     : As an asteroid nears Earth, a man finds himself alone after his wife leaves in a panic. He decides to take a road trip to reunite with his high school sweetheart. Accompanying him is a neighbor who inadvertently puts a wrench in his plan.
 
ldes                                     : As an asteroid nears Earth, a man finds himself alone after his wife leaves in a panic. He decides to take a road trip to reunite with his high school sweetheart. Accompanying him is a neighbor who inadvertently puts a wrench in his plan.
 
hdvd                                     : 1
 
stik                                     : 9
 
rtng                                     : 0
 

 
Video
 
ID                                       : 1
 
Format                                   : AVC
 
Format/Info                              : Advanced Video Codec
 
Format profile                           : [email protected]
 
Format settings, CABAC                   : Yes
 
Format settings, ReFrames                : 12 frames
 
Codec ID                                 : avc1
 
Codec ID/Info                            : Advanced Video Coding
 
Duration                                 : 1h 41mn
 
Bit rate mode                            : Variable
 
Bit rate                                 : 938 Kbps
 
Width                                    : 1 280 pixels
 
Height                                   : 544 pixels
 
Display aspect ratio                     : 2.35:1
 
Frame rate mode                          : Variable
 
Frame rate                               : 23.976 fps
 
Minimum frame rate                       : 23.810 fps
 
Maximum frame rate                       : 24.390 fps
 
Color space                              : YUV
 
Chroma subsampling                       : 4:2:0
 
Bit depth                                : 8 bits
 
Scan type                                : Progressive
 
Bits/(Pixel*Frame)                       : 0.056
 
Stream size                              : 678 MiB (68%)
 
Writing library                          : x264 core 125 r2200 999b753
 
Encoding settings                        : cabac=1 / ref=12 / deblock=1:0:0 / analyse=0x3:0x113 / me=hex / subme=7 / psy=1 / psy_rd=1.00:0.00 / mixed_ref=1 / me_range=16 / chroma_me=1 / trellis=1 / 8x8dct=1 / cqm=0 / deadzone=21,11 / fast_pskip=1 / chroma_qp_offset=-2 / threads=6 / lookahead_threads=1 / sliced_threads=0 / nr=0 / decimate=1 / interlaced=0 / bluray_compat=0 / constrained_intra=0 / bframes=8 / b_pyramid=2 / b_adapt=1 / b_bias=0 / direct=1 / weightb=1 / open_gop=0 / weightp=2 / keyint=240 / keyint_min=23 / scenecut=40 / intra_refresh=0 / rc_lookahead=40 / rc=2pass / mbtree=1 / bitrate=938 / ratetol=1.0 / qcomp=0.60 / qpmin=10 / qpmax=51 / qpstep=4 / cplxblur=20.0 / qblur=0.5 / ip_ratio=1.40 / aq=1:1.00
 
Language                                 : English
 
Encoded date                             : UTC 2012-12-22 18:30:44
 
Tagged date                              : UTC 2012-12-22 18:35:01
 

 
Audio #1
 
ID                                       : 2
 
Format                                   : AAC
 
Format/Info                              : Advanced Audio Codec
 
Format profile                           : LC
 
Codec ID                                 : 40
 
Duration                                 : 1h 41mn
 
Bit rate mode                            : Variable
 
Bit rate                                 : 96.0 Kbps
 
Maximum bit rate                         : 145 Kbps
 
Channel(s)                               : 2 channels
 
Channel positions                        : Front: L R
 
Sampling rate                            : 48.0 KHz
 
Compression mode                         : Lossy
 
Delay relative to video                  : 84ms
 
Stream size                              : 69.2 MiB (7%)
 
Language                                 : English
 
Encoded date                             : UTC 2012-12-22 18:30:44
 
Tagged date                              : UTC 2012-12-22 18:35:01
 

 
Audio #2
 
ID                                       : 3
 
Format                                   : AAC
 
Format/Info                              : Advanced Audio Codec
 
Format profile                           : LC
 
Codec ID                                 : 40
 
Duration                                 : 1h 41mn
 
Bit rate mode                            : Variable
 
Bit rate                                 : 327 Kbps
 
Maximum bit rate                         : 494 Kbps
 
Channel(s)                               : 2 channels
 
Channel positions                        : Front: L R
 
Sampling rate                            : 48.0 KHz
 
Compression mode                         : Lossy
 
Delay relative to video                  : 84ms
 
Stream size                              : 236 MiB (24%)
 
Language                                 : Spanish
 
Encoded date                             : UTC 2012-12-22 18:30:44
 
Tagged date                              : UTC 2012-12-22 18:35:03
 

 
Text
 
ID                                       : 4
 
Format                                   : Timed text
 
Muxing mode                              : sbtl
 
Codec ID                                 : tx3g
 
Duration                                 : 1h 34mn
 
Bit rate mode                            : Variable
 
Bit rate                                 : 69 bps
 
Delay relative to video                  : 84ms
 
Stream size                              : 47.5 KiB (0%)
 
Language                                 : Spanish
 
Encoded date                             : UTC 2013-01-30 21:36:31
 
Tagged date                              : UTC 2013-01-30 21:36:31
 


Enlaces De Descarga





mariokad
Buscando un Amigo Para el Fin del Mundo (Dual 720)
5 Puntos Score: 5/10
Visitas: 3712 Favoritos: 7
Ver los usuarios que votaron...
22 Comentarios Buscando un Amigo Para el Fin del Mundo (Dual 720)
Me la llevo!!..mas tarde paso con puntos!saludos
en la noche me la descargo, graciias  
VIENE CON LOS SUB?
muchisimas gracias mariokad
resube los links porfa
No me hagas caso me equivoque los links estan bien lo que sucede es que los carge rapido en jdownloader y decian fuera de linea luego probe uno por uno despacio y estan bien
@kumangrado ya me estabas asustando de que tiren tan r?
muchas gracias!!!!
La estoy bajando por partes y Mega anda a las trompadas de r?
la baje pero me tira error la 1 parte. que podra ser? ya la descargue 2 veces a esa parte.
@sara22 Ya lo revise y funciona la clave es mariokad, solo min?
No me andan los subtitulos. Lo estoy abriendo con el reproductor de windows y el Real Player.
bajando
esta chido ejeje
slaudos
yo tengo un samrt tv y no me jalan los subs los tienes en .srt?
Muchas gracias carnal.
Para dejar un comentario Registrate! o.. eres ya usuario? Accede!