ac dc live at river plate hd (mega)



Live at River Plate es el último DVD en vivo de AC/DC, que documenta el Black Ice World Tour. Este nuevo material contiene imágenes de los tres conciertos brindados en diciembre de 2009 en el Estadio River Plate en Buenos Aires, Argentina.[sup]1[/sup] Cuenta con la dirección de David Mallet y Rocky Oldham como productor.[sup]1[/sup] Para la grabación se utilizaron 32 cámaras HD. La compañía On Sight fue la responsable de la filmación, y la producción por parte del laboratorio HD Serpent Productions.[sup]1[/sup][/color]
El DVD debutó en el primer lugar de las listas en 17 países diferentes, incluyendo: Estados Unidos, Reino Unido, Alemania,Francia, España, Australia, Argentina, Peru, Canadá, Irlanda, Bélgica, Nueva Zelanda, Suecia, Austria, Chile, Hungría, Finlandia eItalia.[sup]2[/sup][/color]

Set list[ol][li]"Rock 'N' Roll Train"[/li][li]"Hell Ain't A Bad Place To Be"[/li][li]"Back In Black"[/li][li]"Big Jack"[/li][li]"Dirty Deeds Done Dirt Cheap"[/li][li]"Shot Down In Flames"[/li][li]"Thunderstruck"[/li][li]"Black Ice"[/li][li]"The Jack"[/li][li]"Hell's Bells"[/li][li]"Shoot To Thrill"[/li][li]"War Machine"[/li][li]"Dog Eat Dog"[/li][li]"You Shook Me All Night Long"[/li][li]"T.N.T."[/li][li]"Whole Lotta Rosie"[/li][li]"Let There Be Rock"[/li][li]"Highway To Hell"[/li][li]"For Those About To Rock (We Salute You)[/li][/color][/ol]




info:General
H264.mp4
Format                                   : MPEG-4
Format profile                           : Base Media
Codec ID                                 : isom
File size                                : 3.97 GiB
Duration                                 : 1h 51mn
Overall bit rate mode                    : Variable
Overall bit rate                         : 5 097 Kbps
Encoded date                             : UTC 2011-05-18 02:50:36
Tagged date                              : UTC 2011-05-18 02:50:36
Xtra                                     : WM/MediaClassPrimaryID

Video
ID                                       : 1
Format                                   : AVC
Format/Info                              : Advanced Video Codec
Format profile                           : [email protected]
Format settings, CABAC                   : Yes
Format settings, ReFrames                : 3 frames
Codec ID                                 : avc1
Codec ID/Info                            : Advanced Video Coding
Duration                                 : 1h 51mn
Bit rate                                 : 4 449 Kbps
Maximum bit rate                         : 20.2 Mbps
Width                                    : 1 920 pixels
Height                                   : 1 080 pixels
Display aspect ratio                     : 16:9
Frame rate mode                          : Constant
Frame rate                               : 23.976 fps
Color space                              : YUV
Chroma subsampling                       : 4:2:0
Bit depth                                : 8 bits
Scan type                                : Progressive
Bits/(Pixel*Frame)                       : 0.089
Stream size                              : 3.47 GiB (87%)
Writing library                          : x264 core 114 r1924 08d04a4
Audio #1
ID                                       : 2
Format                                   : AAC
Format/Info                              : Advanced Audio Codec
Format profile                           : LC
Codec ID                                 : 40
Duration                                 : 1h 51mn
Bit rate mode                            : Variable
Bit rate                                 : 198 Kbps
Maximum bit rate                         : 211 Kbps
Channel(s)                               : 2 channels
Channel positions                        : Front: L R
Sampling rate                            : 48.0 KHz
Compression mode                         : Lossy
Stream size                              : 158 MiB (4%)
Encoded date                             : UTC 2011-05-18 02:51:02
Tagged date                              : UTC 2011-05-18 02:51:06

Audio #2
ID                                       : 3
Format                                   : AAC
Format/Info                              : Advanced Audio Codec
Format profile                           : LC
Codec ID                                 : 40
Duration                                 : 1h 51mn
Bit rate mode                            : Variable
Bit rate                                 : 446 Kbps
Maximum bit rate                         : 467 Kbps
Channel(s)                               : 6 channels
Channel positions                        : Front: L C R, Side: L R, LFE
Sampling rate                            : 48.0 KHz
Compression mode                         : Lossy
Stream size                              : 356 MiB (9%)
Encoded date                             : UTC 2011-05-18 02:51:03
Tagged date                              : UTC 2011-05-18 02:51:06

los links:
https://mega.co.nz/#!yVNR0YZB!VxtEOwXp1DS3hdPUJpWapAU5-tURVXLqkgaaQH2eqSo
https://mega.co.nz/#!aBdQWbAC!IXcMwRTSMXB5IQcyXtHBY19jfuAR2A_7TeYgKVKaAvc
https://mega.co.nz/#!LUtASB7Z!fk26wE4_P2P4HZEIrsFGFC1le7gdcefbrl7x-YhrC6A
https://mega.co.nz/#!jB9R0YrC!APtYJ0T7WsKMdeq2DuX0BkUu_TYxt6Ma94DtbiAfCf8
https://mega.co.nz/#!eMsAVJba!WHV-oXEJ9kRRUlSmy41nzHV1_rVU-oB7SCVnx7ya6Sw
https://mega.co.nz/#!GY9WERyD!OASn3TjSNKbYOKMzfJIzkjy_cqZOLwO_1baMxmRtOtI
https://mega.co.nz/#!ic93DYya!KBsO2DAuAaXXhh7POvwMDE6Pkq0n1tg4wobou1UjRF4
https://mega.co.nz/#!LNlD0S7Y!Wssjwydb2mGXod0_6sl85zZjJWlneCi0m4UJZL4ka_0
https://mega.co.nz/#!uQtn2bjI!fxLPxShu24wdeoiDcQ6lUxvQ1HBD6UhCSs0E7iJycVY
https://mega.co.nz/#!GAE0TSxT!GAx0YCUNkTDXa8RtyWH0GwDu4dNw7LPh5eG2ecWBdEI
https://mega.co.nz/#!yJlByQQQ!T7WPBGtOlcuho4Y7q1xCT2DMqHxjBsdz1ZvXy90davU
https://mega.co.nz/#!7EVjiYhZ!C0QiJ1pP0dxxziyILnvq7kOq4iNg0p5ofdBYkXnIqho
https://mega.co.nz/#!7AlRHDQa!MSRUcjq2PHIWEgNYnAyJtDuKcPAh79bqeRhOqoSDX5E
https://mega.co.nz/#!7ZlhgBJK!RtmKO0Bv9u3FVQ25ri1fUieVlMJq7FW4nD7nreukh3g
https://mega.co.nz/#!vR8zyRZA!QgfXBHeYJ_QgMuLbeCAvC0vQ5jRQFDe1SzjIKGfFihM
https://mega.co.nz/#!DVUQnRzY!BrIKKXIpgItUJmG-UfLQ-xn9WZJxGGBgLTVN3zIfIys
https://mega.co.nz/#!3IcTnTYY!FDK5BSmQnwGy1IflFepgGVHm0u01k8gFoe_vemvXrL8
https://mega.co.nz/#!qcUHmCjB!LlI7gV4bj1p3GwYAIe5hhFo16gIP2mWYQzvJHWe6orc
https://mega.co.nz/#!2R9GTbZS!QQ_RdnpzLlNz2-mhrY4nESf_61Acjk5BJNwofPAUz4w
https://mega.co.nz/#!zZ0GXR4Z!e0jmh2EGNtj2xp1zsaS092rozTo3xf0Jn9tgerQoIfY
https://mega.co.nz/#!WQtimBib!DfkQ_xxJ96WpQi10Z9-GJzPratYq2bfQgD0nsyjUiRU
https://mega.co.nz/#!WAM1iJIC!Px4B7lf_dS5OQwtp0sbbzGMhVQEqVoJkc09YIq0n_yQ
https://mega.co.nz/#!jZUURRwS!Jfjqsjj5ux_LphspLhwulDSgtYJR--L3zAqmeynGdS8
https://mega.co.nz/#!PN9w1Z7J!cojiPEz2rNuAnIBeUZ7ncRL9QxoYgg70lqEjilBtv28
https://mega.co.nz/#!mAdwEYjb!As-2dlOxx4YzR2S_ecuOxRSyWKNp6CCYUQyO4WVyeww
https://mega.co.nz/#!XN9VQBBA!WsHBm3eu8iht4NkGjUKZr0geIfcWqjlELB2FWo3fAMI
https://mega.co.nz/#!bQc0CJwD!X2V23DClwxMUNWfBAqqFG2xddkA1wi7bXga33zdS3mE
https://mega.co.nz/#!XItGCJoa!ZizpTzSFF75WGheOIuOrL1UBtOV2YUUsJosbn02oO5s
https://mega.co.nz/#!eNNHWbAS!fysLn2Fa7I2ufwlvwLjOUltWb1ACFA7y-XhsZvbUSeU
https://mega.co.nz/#!6N8TBbRB!KIig_k5buDjX1TKB1k07B0WXGANs7haTo8BWI6K9WWw
https://mega.co.nz/#!PUkwHJ4C!RYtRqCRQ8M9rIoJf5klZ43WxU0BP17tXBvdmh7Upkdo
https://mega.co.nz/#!ydVm0TBZ!dLKDgFPfPLh5kYtXngxLikF7aj81ugn9DB24nbi24Us
https://mega.co.nz/#!SVdnGQzJ!AAAyqWc__EBW7sc2-otvaBafoasoMfWWUgzAIOTooh8
https://mega.co.nz/#!XFdX3CJK!Zvh1BBTv4X9wsqOenJhvxREsggdi-4U8fOpFvu6G948
https://mega.co.nz/#!iUNWEBjT!Z-mDswp81g0KNRUpl6GYU0n1PiYksEcpVHc4P9rZvRA
https://mega.co.nz/#!Tc1A2D6I!TBt3sQalmh7VwLztq_jC01q_e4Y3_63b2v98j4hrKp4
https://mega.co.nz/#!6I1TBT5L!FUueXWUf2SQt_NX8y6jJ4AqqO48AIaYrOsEnXMh5Uc0
https://mega.co.nz/#!aUNkgB6K!EPn1hyykxhqfii_SbRnO9UWTBuB3t_LNwBBO6Qt4VVc
https://mega.co.nz/#!XJUCmBQZ!V4HdpWF2ryK5g9dnCZAYokxXxgxCCQWK-dN1G3vha4o
https://mega.co.nz/#!rE0GRIZJ!R6DUrhvkEtSRCL8PMYatWWDUUrpbWLSulUbMhHmk0Ic
https://mega.co.nz/#!GUl0maYD!SISqIgUEgNlQjgUM1RyEqSETX98mldfeYnSc3cI7BwA
ac dc live at river plate hd (mega)
0 Puntos Score: 0/10
Visitas: 8792 Favoritos: 4
Más del Autor...
3 Comentarios ac dc live at river plate hd (mega)
:Dpues a verlo muchas gracias  
Amigo mejor sube tus archivos de MEGA a: MEGADOUT.COM
gracias por el aporte pero lo buscaba full, con full me refiero a menu, extras y esas cosas... pero de todas formas gracias igual por tomarte el tiempo en subirlo  
Para dejar un comentario Registrate! o.. eres ya usuario? Accede!