[Megapost] Peliculas DvdRip Latino [Muy buenas]




Hola Usuarios de Identi, en este MEGAPOST de peliculas en audio latino DvdRip con peliculas recientes, las tres ultimas peliculas tiene un formato MP4 pero con la calidad de DvdRip desde ahora subire peliculas con ese formato ya que esta mas comprimido y tiene la misma calidad ademas de que lo bajan mas rapido, sin mas que decir aqui las peliculas!!

[/size]









Siendo aún adolescente, Donny (Adam Sandler) tuvo un hijo, Todd (Andy Samberg), y lo crio como un padre soltero hasta el cumpleaños 18 de Todd. Ahora, después de no verse en varios años, el mundo de Todd se viene abajo en la víspera de su matrimonio, cuando Donny reaparece por sorpresa. Tratando desesperadamente de conectar con su hijo, Donny se ve oblicado a lidiar con las repercusiones de su pobre trabajo como padre.

[/size]



[/size]

Título: Desmadre de padre
Título original: That's My Boy
País: USA 
Estreno en USA: 15/06/2012 
Estreno en España: 31/08/2012 
Lanzamiento en DVD (alquiler): 21/12/2012 
Estreno en DVD (venta): 15/01/2013 
Estreno en Blu-ray: 15/01/2013 
Productora: Columbia Pictures (Sony), Happy Madison 
Director: Sean Anders, John Morris 
Guión: David Caspe, David Wain & Ken Marino 
Reparto: Adam Sandler, Leighton Meester, Susan Sarandon, James Caan, Milo Ventimiglia, Andy Samberg, Eva Amurri Martino, Will Forte, Blake Clark, Ian Ziering, Todd Bridges, Dana Goodman, Ciara, Colin Quinn, Meagen Fay
Calificación: No recomendada para menores de 18 años



[/size]

Complete name: C:ESE.ES.MI.HIJO.LAT.avi
Format : AVI
Format/Info: Audio Video Interleave
File size : 760 MiB
Duration: 1h 56mn
Overall bit rate: 915 Kbps
Writing application: Lavf52.57.1

Video
ID : 0
Format : xvid
Codec ID: xvid
Duration : 1h 56mn
Bit rate: 678 Kbps
Width: 680 pixels
Height: 340 pixels
Display aspect ratio : 2.000
Frame rate: 23.976 fps
Bits/(Pixel*Frame): 0.122
Stream size : 563 MiB (74%)

Audio
ID: 1
Format: MPEG Audio
Format version: Version 1
Format profile: Layer 3
Mode: Joint stereo
Codec ID  : 55
Codec ID/Hint : MP3
Duration : 1h 56mn
Bit rate mode : Constant
Bit rate: 224 Kbps
Channel(s): 2 channels
Sampling rate : 48.0 KHz
Compression mode: Lossy
Stream size: 186 MiB (24%)
Alignment : Aligned on interleaves
Interleave, duration: 24 ms (0.58 video frame)

[/size]



[/size]

Esta en Audio Latino solo que los subtitulos en ingles estan pegados 

















[/size]

Durante años, Heather Mason (Clemens) y su padre han estado a la carrera, huyendo siempre de fuerzas peligrosas que no logran entender. Ahora, en vísperas de su 18 cumpleaños Heather no para de tener pesadillas aterradoras, a las que se les une la desaparición de su padre. La protagonista descubrirá entonces que su padre no es quien ella pensaba que era, y esta revelación le llevará a profundizar en un mundo demoníaco que amenaza con una trampa eterna en Silent Hill.



[/font][/size][/color]



[/size]


Título: 
Título original: Silent Hill: Revelation 3D
País: USA 
Estreno en USA: 26/10/2012 
Estreno en España: 
Productora: TriStar Pictures (Sony) 
Director: Michael J. Bassett 
Guión: Roger Avary, Michael J. Bassett 
Reparto: Adelaide Clemens, Kit Harington, Radha Mitchell, Sean Bean, Deborah Kara Unger, Carrie-Anne Moss, Malcolm McDowell


[/size]


Complete name : C:$1Ll3n7H1Ll[Ekisde][[email protected]][DvdRip].avi
Format: AVI
Format/Info: Audio Video Interleave
File size : 698 MiB
Duration: 1h 34mn
Overall bit rate : 1 033 Kbps
Movie name: Silent.Hill.2.Revelation3D.2012.DVDRip.LATINO.XviD-Johual
Director : WwW.DD-Peliculas.COM
Recorded date : 25-01-2013
Writing application: VirtualDubMod 1.5.10.2 (build 2540/release) VirtualDubMod build 2540/release
Original source form/Name      : Movie
Copyright  : WwW.DD-Peliculas.COM
Comment: By Johual

Video
ID : 0
Format: MPEG-4 Visual
Format profile: Advanced [email protected]
Format settings, BVOP: 2
Format settings, QPel: No
Format settings, GMC: No warppoints
Format settings, Matrix: Default (H.263)
Codec ID: XVID
Codec ID/Hint: XviD
Duration: 1h 34mn
Bit rate: 896 Kbps
Width: 640 pixels
Height  : 352 pixels
Display aspect ratio: 16:9
Frame rate : 23.976 fps
Color space: YUV
Chroma subsampling : 4:2:0
Bit depth : 8 bits
Scan type: Progressive
Compression mode : Lossy
Bits/(Pixel*Frame): 0.166
Stream size: 606 MiB (87%)
Writing library: XviD 1.2.1 (UTC 2008-12-04)

Audio
ID: 1
Format: MPEG Audio
Format version: Version 1
Format profile: Layer 3
Mode : Joint stereo
Codec ID: 55
Codec ID/Hint: MP3
Duration : 1h 34mn
Bit rate mode : Constant
Bit rate : 128 Kbps
Channel(s): 2 channels
Sampling rate: 44.1 KHz
Compression mode : Lossy
Stream size: 86.5 MiB (12%)
Alignment: Split accross interleaves
Interleave, duration: 42 ms (1.00 video frame)
Interleave, preload duration   : 500 ms
Writing library : LAME3.98.2
Language: Undefined
[/size]



[/size]




















Este alienígena, llamado Paul, lleva 60 años instalado en una base militar de alta seguridad. Por razones desconocidas, este sabelotodo viajero del espacio decide escaparse y subir al primer vehículo que encuentra, una caravana de alquiler en la que viajan los terrícolas Graeme Willy (Pegg) y Clive Collings (Frost).



Titulo Original: Paul
Titulo Hispano: Paul
Idioma: Español Latino
País: USA
Año: 2011
Género: Comedia. Aventuras. Ciencia ficción | Extraterrestres. Road Movie. Amistad
Tamaño: 600 Mb
Calidad Imagen: DVDRip

[/color][/font][/b]

Complete name: Paul.AudioLatino.avi
Format  : AVI
Format/Info  : Audio Video Interleave
File size: 667 MiB
Duration  : 1h 49mn
Overall bit rate: 853 Kbps
Writing application  : Lavf51.12.1

Video
ID: 0
Format   : MPEG-4 Visual
Format profile  : [email protected]
Format settings, BVOP : No
Format settings, QPel: No
Format settings, GMC: No warppoints
Format settings, Matrix: Default (H.263)
Codec ID : DX50
Codec ID/Hint: DivX 5
Duration: 1h 49mn
Bit rate: 521 Kbps
Width: 720 pixels
Height : 480 pixels
Display aspect ratio: 3:2
Frame rate: 23.976 fps
Standard: NTSC
Color space: YUV
Chroma subsampling: 4:2:0
Bit depth: 8 bits
Scan type: Progressive
Compression mode: Lossy
Bits/(Pixel*Frame): 0.063
Stream size: 407 MiB (61%)
Writing library: Lavc51.40.4

Audio
ID : 1
Format : MPEG Audio
Format version: Version 1
Format profile : Layer 3
Mode  : Joint stereo
Codec ID : 55
Codec ID/Hint : MP3
Duration: 1h 49mn
Bit rate mode: Constant
Bit rate: 320 Kbps
Channel(s) : 2 channels
Sampling rate: 44.1 KHz
Compression mode: Lossy
Stream size: 250 MiB (38%)
Alignment: Aligned on interleaves
Interleave, duration: 26 ms (0.63 video frame)
Writing library: LAME3.97



















Sin pass unir con hJplsit
[/links][/size][/color]


[/color][/font][/b]

Descromprimir con Jsplit aqui abajo te dejo el link.






















Alex, detective de la policía y psicólogo, está investigando las extrañas muertes de los miembros de una banda criminal. Todo parece indicar que se trata de un ajuste de cuentas entre gángsters pero a medida que se van conociendo los detalles, los crímenes se empiezan a parecer sospechosamente a otras muertes anteriores atribuidas a un asesino en serie llamado Sullivan...

[/font][/size][/color]

Título: En la mente del asesino
Título original: Alex Cross
País: USA 
Estreno en USA: 19/10/2012 
Estreno en España: 16/11/2012 
Productora: Summit Entertainment 
Director: Rob Cohen 
Guión: James Patterson, Kerry Williamson, Marc Moss 
Reparto: Matthew Fox, Tyler Perry, Edward Burns, Jean Reno, Rachel Nichols, Giancarlo Esposito, Carmen Ejogo, John C. McGinley, Cicely Tyson, Chad Lindberg, Yara Shahidi, Stephanie Jacobsen, Jessalyn Wanlim, Sayeed Shahidi, Christopher Stadulis 
Calificación: No recomendada para menores de 16 años



[/font][/size][/b]

General
Complete name: C:UsersIsraelpuntocomDownloads3N14M3N73D3145351N0R1P.avi
Format  : AVI
Format/Info: Audio Video Interleave
File size: 702 MiB
Duration: 1h 41mn
Overall bit rate: 967 Kbps
Movie nam : Alex.Cross.2012.DVDRip.LATINO.XviD
Recorded date: 23-012012
Writing application: VirtualDubMod 1.5.10.2 (build 2540/release) VirtualDubMod build 2540/release
Original source form/Name : Movie

Video
ID : 0
Format: MPEG-4 Visual
Format profile : Advanced [email protected]
Format settings, BVOP: 2
Format settings, QPel : No
Format settings, GMC: No warppoints
Format settings, Matrix : Default (H.263)
Codec ID : XVID
Codec ID/Hint: XviD
Duration: 1h 41mn
Bit rate: 830 Kbps
Width: 640 pixels
Height: 272 pixels
Display aspect ratio: 2.35:1
Frame rate: 23.976 fps
Color space: YUV
Chroma subsampling: 4:2:0
Bit depth: 8 bits
Scan type: Progressive
Compression mode : Lossy
Bits/(Pixel*Frame) : 0.199
Stream size : 602 MiB (86%)
Writing library: XviD 1.2.1 (UTC 2008-12-04)

Audio
ID: 1
Format: MPEG Audio
Format version : Version 1
Format profile: Layer 3
Mode  : Joint stereo
Mode extension: MS Stereo
Codec ID: 55
Codec ID/Hint: MP3
Duration: 1h 41mn
Bit rate mode: Constant
Bit rate: 128 Kbps
Channel(s: 2 channels
Sampling rate: 44.1 KHz
Compression mode: Lossy
Stream size: 92.9 MiB (13%)
Alignment: Split accross interleaves
Interleave, duration: 42 ms (1.00 video frame)
Interleave, preload duration   : 500 ms
Writing library: LAME3.98.2
Language : Undefined



[/font][/size][/b]











[/color][/font][/b]

Unir con Jsplit aqui abajo te dejo el link.














¿En qué estaba pensando Mark Whitacre? De medrar en el gigante de la industria agrícola Archer Daniels Midland (ADM), Whitacre (Matt Damon) pasa de repente a denunciar prácticas corruptas en su empresa. Mientras informa al FBI de la conspiración de su empresa para fijar precios a nivel multinacional, Whitacre se contempla a sí mismo aclamado como héroe y objeto de un ascenso. Pero antes de que suceda eso, el FBI necesita pruebas, así Whitacre se presta con entusiasmo a llevar una grabadora oculta en su maletín, y se imagina que es algo así como una especie de agente secreto.
Desafortunadamente para el FBI, su testigo principal no ha sido muy comunicativo respecto a los detalles financieros de la empresa. El relato siempre cambiante de Whitacre frustra a los agentes (Scott Bakula y Joel McHale) y pone en riesgo el caso contra ADM, ya que resulta casi imposible descifrar lo que es verdad y lo que es fruto de la gran imaginación de Whitacre.





Título: El Soplón
Título Original: The Informant
Género: Thriller
Nacionalidad: USA
Año: 2009
Director: Steven Soderbergh
Guión: Scott Burns
Reparto: Matt Damon, Joel McHale, Scott Bakula, Mike O?Malley, Andrew Daly, Adam Paul, Melanie Lynskey, Tom Wilson, Rick Overton, Tom Papa, Candy Clark
Fecha de Estreno: Viernes, 25 de Septiembre de 2009


[/b][/font][/size][/color]
Formato: .AVI
Peso: 703 Mb
Uploaded: Ekisde
*** VIDEO INFO ***
Input Type : XVID(GVC)
Input Size : 624 x 352
Output Type : YUY2
Output Size : 624 x 352
FrameRate(Frame/sec) : 0.00 (23.98)

*** AUDIO INFO ***
MP3
SampleRate(Sample/sec) : 32000
BitRate(Bit/sample) : 16
Channels : 2
KBitRate(KBit/sec) : 96


















[/color][/font][/b]

Unir con Jsplit aqui abajo te dejo el link.














Juno Macguff (Ellen Page) tiene 16 años y es, según los adultos que la rodean, más inteligente de lo que le conviene. Y sí, es cierto, es ingeniosa, culta, rápida en las respuestas, observadora y, sobre todo, sarcástica. Ese sarcasmo es su particular trinchera para esconder sus miedos y las dudas. La relación que mantiene con un compañero de clase, Bleeker (Michael Cera), acaba de dejar fruto: está embarazada. A él le interesa poco el asunto, o más bien nada. Juno está sola con su problema pero ya ha tomado una decisión: tendrá el niño y lo dará en adopción. Su padre y su madrastra están de acuerdo. Ahora hay que encontrar padres adoptivos adecuados. Son Mark (Jason Bateman) y Vanessa (Jennifer Garner), y son ideales. Sólo que Mark comparte demasiado con Juno, demasiadas aficiones comunes y un entendimiento a primera vista...









Título: Juno
Título original: Juno
País: USA 
Estreno en USA: 05/12/2007 
Estreno en España: 01/02/2008 
Lanzamiento en DVD (alquiler): 04/06/2008 
Estreno en DVD (venta): 27/08/2008 
Estreno en Blu-ray: 27/08/2008 
Productora: Fox Searchlight Pictures 
Director: Jason Reitman 
Guión: Jason Reitman 
Reparto: Ellen Page, Michael Cera, Allison Janney, JK Simmons, Olivia Thirlby, Jason Bateman, Jennifer Garner



[/font][/size][/b]

Perdon por esto que va faltar es que borre por accidente la pelicula pero aqui las caracteristicas principales

Formato: AVI
Audio: Claro Latino
Peso: 442 Mb Ya descomprimida
Codec: XVID

[/font][/size][/b]











Unir con Jsplit aqui abajo te dejo el link.


















Basada en el libro de John Carlin The Human Factor: Nelson Mandela and the Game That Changed the World, Invictus cuenta la verídica e inspiradora historia de cómo Nelson Mandela (Morgan Freeman) unió sus esfuerzos con el capitán del equipo de rugby de Sudáfrica, Francois Pienaar (Matt Damon), para ayudar a unir el país.
El recién elegido Presidente Mandela es consciente de que su nación sigue estando dividida tanto racialmente como económicamente debido a las secuelas del apartheid. Creyendo que puede unir a su pueblo a través del lenguaje universal del deporte, Mandela apoya al desamparado equipo de rugby de Sudáfrica cuando, con pocas probabilidades, participa en el Campeonato Mundial de 1995.



Título: Invictus
Título Original: Invictus
Género: Drama
Nacionalidad: USA
Año: 2009
Director: Clint Eastwood
Guión: Anthony Peckham
Reparto: Morgan Freeman, Matt Damon
Fecha de Estreno: Viernes, 29 de Enero de 2010


[/b][/font][/size]

General
Complete name: 1nv1ctu$[lat1n0][Ekisde].avi
Format: AVI
Format/Info : Audio Video Interleave
File size : 739 MiB
Duration : 2h 13mn
Overall bit rate : 773 Kbps
Writing application: Lavf51.12.1

Video
ID: 0
Format: MPEG-4 Visual
Format profile: [email protected]
Format settings, BVOP: No
Format settings, QPel : No
Format settings, GMC: No warppoints
Format settings, Matrix  : Default (H.263)
Codec ID : DX50
Codec ID/Hint  : DivX 5
Duration: 2h 13mn
Bit rate: 441 Kbps
Width : 624 pixels
Height  : 272 pixels
Display aspect ratio: 2.25:1
Frame rate : 25.000 fps
Color space : YUV
Chroma subsampling  : 4:2:0
Bit depth: 8 bits
Scan type : Progressive
Compression mode : Lossy
Bits/(Pixel*Frame): 0.104
Stream size : 421 MiB (57%)
Writing library: Lavc51.40.4

Audio
ID: 1
Format : MPEG Audio
Format version : Version 1
Format profile: Layer 3
Mode : Joint stereo
Codec ID : 55
Codec ID/Hint: MP3
Duration: 2h 13mn
Bit rate mode  : Constant
Bit rate: 320 Kbps
Channel(s): 2 channels
Sampling rate: 44.1 KHz
Compression mode : Lossy
Stream size: 306 MiB (41%)
Alignment: Aligned on interleaves
Interleave, duration: 26 ms (0.65 video frame)
Writing library : LAME3.97

[/font][/size][/color]






[/size]











Unir con Jsplit aqui abajo te dejo el link.






















Scott Voss (Kevin James) que en su época en el instituto practicó la lucha libre, ahora es un profesor de biología de 42 años en un instituto en franca decadencia. Cuando los recortes amenazan con cancelar las clases de música y despedir al profesor a cargo de éstas (Henry Winkler), Scott comienza a recaudar dinero haciendo doblete y trabajando como luchador de artes marciales mixtas. Todos piensan que Scott está chalado, sobre todo la enfermera del instituto, Bella (Salma Hayek). Pero en su cruzada, a medida que se compromete más y más a luchar por los estudiantes, acaba convirtiéndose en un éxito de tal magnitud que logra unir a todo el instituto.


[/size][/b][/color]






Título: Peso pesado
Título original: Here Comes the Boom
País: USA 
Estreno en USA: 12/10/2012 
Estreno en España: 11/01/2013 
Productora: Columbia Pictures (Sony) 
Director: Frank Coraci 
Guión: Allan Loeb, Kevin James 
Reparto: Kevin James, Salma Hayek, Henry Winkler, Joe Rogan, Reggie Lee, Greg Germann, Melissa Peterman, Greg Paul, Charice, Bas Rutten, Nicholas R. Grava, Frank Coraci, Germaine De Leon, Alexandra East, Jonathan Michael Trautmann






















Unir con Jsplit aqui abajo te dejo el link.




















Un solitario muchacho no quiere vivir más hasta que conoce a una muchacha que lo hace pasar por un actor ?estrella?. Un arrogante abogado recibe una lección al quedarse atorado en un elevador con una sirvienta fuera de serie. Un "computer-freak" hace una cita a ciegas por internet, la desconocida resulta no ser tan ?desconocida?. Cinco ancianos deciden matar el aburrimiento y planean asaltar un banco.



Título: Los inadaptados
Título original: Los inadaptados
País: México 
Estreno en USA: 
Estreno en España: 
Productora: Los Güeros Films, Beanca Films, Eficine 
Director: Jorge Ramírez-Suárez, Javier Colinas, Marco Polo Constandse, Sergio Tovar Velarde 
Guión: Luis Arrieta 
Reparto: Luis Arrieta, Luis Ernesto Franco, Paola Núñez, Tiaré Scanda, Joaquín Cordero, Maya Zapata, Rosa María Bianchi, Eugennio Bartilotti, Beatriz Aguirre, Ana Serradilla, Patricio Castillo, Isela Vega, Héctor Kotsifakis, Justo Martínez




Formato: AVI
Peso: 598 Mb [ya descomprimido]
Idioma: Español Latino
Resolucion: 640x276
Duracion: 1:46:41
















Unir con Jsplit aqui abajo te dejo el link.


















Condenado por asesinar policías, Carl Lucas -también conocido como Frankenstein- es el nuevo piloto estrella de Death Race, una carrera mortal en el que se juega salir libre de prisión juto a su equipo de mecánicos. Por ello Lucas se sumerge en un nuevo concurso más cruel que cualquier cosa que haya experimentado antes. Se enfrentará con los adversarios más despiadados en una carrera en el desierto de Kalahari en el Sur de África...












[table][tr][td]Género:[/td][td]Ciencia Ficción[/td][/tr][tr][td]Temática:[/td][td]Muerte[/td][/tr][tr][td]País:[/td][td]Estados Unidos[/td][/tr][tr][td]Año:[/td][td]2013[/td][/tr][tr][td]En DVD:[/td][td]:27-02-2013 :22-01-2013[/td][/tr][tr][td]En BLURAY:[/td][td]:27-02-2013 :22-01-2013[/td][/tr][tr][td]Popularidad:[/td][td]5ª 

[/td][/tr][tr][td]Top 1500:[/td][td]818ª 

[/td][/tr][tr][td][/td][/tr]
[/table]




Complete name: D34tHHRRr4c3L[3]@T[Ekisde][DvdRip].avi
Format: AVI
Format/Info: Audio Video Interleave
File size : 698 MiB
Duration : 1h 45mn
Overall bit rate : 927 Kbps
Writing application  : VirtualDubMod 1.5.10.2 (build 2540/release)
Writing library: VirtualDub build 30586/release

Video
ID: 0
Format: MPEG-4 Visual
Format profile: Advanced [email protected]
Format settings, BVOP : 2
Format settings, QPel: No
Format settings, GMC: No warppoints
Format settings, Matrix: Default (MPEG)
Codec ID  : XVID
Codec ID/Hint : XviD
Duration: 1h 45mn
Bit rate : 790 Kbps
Width : 640 pixels
Height : 352 pixels
Display aspect ratio: 16:9
Frame rate : 23.976 fps
Color space: YUV
Chroma subsampling : 4:2:0
Bit dept : 8 bits
Scan type: Progressive
Compression mode: Lossy
Bits/(Pixel*Frame): 0.146
Stream size: 594 MiB (85%)
Writing library : XviD 1.2.1 (UTC 2008-12-04)

Audio
ID: 1
Format: MPEG Audio
Format version: Version 1
Format profile: Layer 3
Mode : Joint stereo
Mode extension  : MS Stereo
Codec ID: 55
Codec ID/Hint : MP3
Duration: 1h 45mn
Bit rate mode : Constant
Bit rate: 128 Kbps
Channel(s): 2 channels
Sampling rate: 44.1 KHz
Compression mode: Lossy
Stream size: 96.3 MiB (14%)
Alignment: Split accross interleaves
Interleave, : 42 ms (1.00 video frame)
Interleave, preload duration   : 500 ms
Writing library: LAME3.98.2





















[/color][/font][/b]
Unir con Jsplit aqui abajo te dejo el link.







[/size][/color]
Bueno pues estas son las peliculas que yo les recomiendo apoyen en los comentarios si quieren una segunda parte, muchas gracias por los puntos que me han dado en otros post, aportar en la cosa,
aclaro que yo soy el uploader de todas las peliculas, recuerda se unen con el Hjsplit.











[Megapost] Peliculas DvdRip Latino [Muy buenas]
94 Puntos Score: 7.2/10
Visitas: 45475 Favoritos: 17
Ver los usuarios que votaron...
27 Comentarios [Megapost] Peliculas DvdRip Latino [Muy buenas]
Buen aporte, gracias!
que postazozozozozote
gracias sigue asi viejo
a favs
@MASYMEJOR @Nessa @ROOLLER @tycusz MUCHAS GRACIAS!!! por comentar y pasar se los agradesco  
PPERO QUE PEDAZO !!!!!!! DE POST CHE LA POSTA


favoritos +10  
buen aporte!!!!  
@puriscal @tj99003 @elcondef @ema_12uk Muchas Gracias por los puntos, y por haber tenido la molestia de pasar por este post  
muchas gracias  
gracias amigo me llevo una ...descargando
alto post capo solo fijate en ficha tecnica de la pelicula "la carrera de la muerte 3"...
una mierda las pelis, igual van 5 por el esfuerzo
opino igual...solo me gusta una peli....pero excelente esfuerzo y dedicxacion...detalle y cuidado en el post...excelente amigo...sigue asi....+10
No me llevo ninguna, pero buen aporte +4  
buenas peli, bajo una, pero las que vi de este post son muy buenas
La de "la carrera de la muerte", "Silent hill 2" son p?
excelente post te felicito
Buen Megapost! Se agradece
man excelente post grandes aportes lo m?
Gracias por el  aporte disculpa me descargue la de LOS INADAPTADOS pero me pide contrase?
Gracias Ekisde, habia leido mal tu nick pense que era Ekside y fue lo que intente poner como contrase?
Muchas Gracias. Alguna me llevo.
Para dejar un comentario Registrate! o.. eres ya usuario? Accede!