Pokemon The First Movie Mewtwo Strikes Back 720p

Pokemon The First Movie Mewtwo Strikes Back 720p Latino









TÍTULO ORIGINAL:Pokémon (Pokémon the First Movie: Mewto Strikes Back) / Pocket Monsters: Mewtwo Strikes Back!

OTROS TÍTULOS: Pokémon: La Película / Pokemón: La Primera Película (Mewtwo Contraataca)

AÑO: 1998

DURACIÓN: 75 min.

PAÍS: Japón

DIRECTOR: Kunihiko Yuyama

GUIÓN: Takeshi Shudo

MÚSICA: John Loeffler & Ralph Schuckett

FOTOGRAFÍA: Animation

REPARTO: Animation

PRODUCTORA: Coproducción Japón-USA; Warner Bros released

GÉNERO: Animación. Aventuras. Fantástico. Infantil | Monstruos. Videojuego

FECHA DE ESTRENO JAPÓN: 18 de julio de 1998

FECHA DE ESTRENO USA: 6 de noviembre de 1999  (Estreno)

FECHA DE ESTRENO VENEZUELA: 15 de diciembre de 1999

FECHA DE ESTRENO ESPAÑA: 14 de abril de 2000



TÍTULO ORIGINAL:Pokémon: Pikachu no natsu yasumi (Pikachu?s Summer Vacation) (Pikachu Movie 1)

OTROS TÍTULOS: Pokémon: Las vacaciones de Pikachu / Pikachu La Película

AÑO:  1998

DURACIÓN: 23 min.

PAÍS: Japón

DIRECTOR: Kunihiko Yuyama

GUIÓN: Yuji Asada

FOTOGRAFÍA: Animation

REPARTO: Animation

PRODUCTORA: Nintendo / 4Kids Entertainment / Warner Bros.

GÉNERO: Animación. Fantástico. Comedia. Aventuras. Infantil | Monstruos. Spin-off. Videojuego. Mediometraje



DATOS TÉCNICOS
Pokemon: The First Movie ? Mewtwo Strikes Back (1998)
BDRip 720p | XviD | AC3 5.1 | 2.6 GB  + 729 MB | Audio: Español Latino | Subtítulos: Español | 1998 | Animación | 4Shared

SINOPSIS
Pokemón: La primera película (Mewtwo Contraataca)
Un grupo de científicos ha estado trabajando en un laboratorio secreto, tratando de crear el Pokémon más fuerte que exista. Para ello, han tomado ADN de una muestra de cabello fosilizada del legendario Pokémon Mew, utilizando el código genético de la evasiva criatura para crear a Mewtwo mediante la ingeniería biológica. Ignorantes del poder de su creación, los científicos y sus laboratorios son destruídos por Mewtwo cuando se despierta. Airado con sus creadores, Mewtwo jura vengarse del mundo?

Las Vacaciones de Pikachu / Pikachu La Película
Ash y sus amigos llegan a un espacio exclusivo para pokémon y les dejan disfrutar de unas pequeñas vacaciones. Pero los llantos de Togepi ponen en alerta a Pikachu y sus amigos, lo que les lleva a conocer a Raichu y su pandilla. Primer especial protagonizado por Pikachu, que acompañó a Pokémon la película (1998) en los cines de todo el mundo y puede encontrarse en las versiones domésticas del mismo film.













Enlaces De Descarga


Crazysoftbl




Herraminetas:
-Internet Download Manager

Unir Archivos:
- HJ-Split.

Descomprimir:
Winrar o 7zip.
Password: Crazysoftbl

Reproducir: 
VLC Player.
Pokemon The First Movie Mewtwo Strikes Back 720p
5 Puntos Score: 5/10
Visitas: 4587 Favoritos: 8
Ver los usuarios que votaron...
16 Comentarios Pokemon The First Movie Mewtwo Strikes Back 720p
@Tsukune666  General
Complete name                    : Pokemon.The.Movie.1998.720p.BDRip.LATiNO.XviD.AC3.avi
Format                           : AVI
Format/Info                      : Audio Video Interleave
Format profile                   : OpenDML
File size                        : 2.40 GiB
Duration                         : 1h 14mn
Overall bit rate                 : 4 608 Kbps

Video
ID                               : 0
Format                           : MPEG-4 Visual
Format profile                   : Advanced [email protected]
Format settings, BVOP            : 2
Format settings, QPel            : No
Format settings, GMC             : No warppoints
Format settings, Matrix          : Default (MPEG)
Codec ID                         : XVID
Codec ID/Hint                    : XviD
Duration                         : 1h 14mn
Bit rate                         : 4 213 Kbps
Width                            : 1 280 pixels
Height                           : 688 pixels
Display aspect ratio             : 1.860
Frame rate                       : 23.976 fps
Color space                      : YUV
Chroma subsampling               : 4:2:0
Bit depth                        : 8 bits
Scan type                        : Progressive
Compression mode                 : Lossy
Bits/(Pixel*Frame)               : 0.200
Stream size                      : 2.20 GiB (91%)
Writing library                  : XviD 1.2.1 (UTC 2008-12-04)

Audio
ID                               : 1
Format                           : AC-3
Format/Info                      : Audio Coding 3
Codec ID                         : 2000
Duration                         : 1h 14mn
Bit rate mode                    : Constant
Bit rate                         : 384 Kbps
Channel(s)                       : 6 channels
Sampling rate                    : 44.1 KHz
Compression mode                 : Lossy
Stream size                      : 205 MiB (8%)
Alignment                        : Split accross interleaves
Interleave, duration             : 42 ms (1.00 video frame)
Interleave, preload duration     : 500 ms
gracias, luego la descargo
Descargando, gracias por el aporte
como esta la calidad del audio?
Buen aporte men, Seria GENIAL si tuvieras las dem?
Estan muy buenos tus aportes Gracias!!!!
Esta la vi en calidad hijo de puuu.. asi que sera motivo pero 4shared es mediocre la bajada pero igual no opaca tu aporte, thanks  
Me dice que la contrase?
Muchas gracias! Se ve espectacular.
Para dejar un comentario Registrate! o.. eres ya usuario? Accede!