Silver Linings Playbook[SubEsp][DVDScreener][2012]


Hola, ahora les traigo una pelicula nueva la calidad no es muy buena ya que es la que le entrgan a los criticos es dvdscreener pero casi la calidad de dvdrip lograda, la pelicula pesaba1.6 Gb yo lo comprimi a .flv pero aunque sea un formato muy comprimido opte por agrgarle unos Mb mas y pasarla .Avi estilo dvdrip asi que aun que se perdio un poco de calidad del archivo original la calidad es muy buena con subtitulos actualizados, si no les gustan me pueden decir para tratar de conseguir otros, aqui la pelicula:

[/size][/b]


[/size][/b]

Tras pasar ocho meses en una institución mental por agredir al amante de su mujer, Pat (Bradley Cooper) vuelve con lo puesto a vivir en casa de sus padres (Robert De Niro y Jacki Weaver). Determinado a tener una actitud positiva y recuperar a su ex-mujer, el mundo de Pat se pone del revés cuando conoce a Tiffany (Jennifer Lawrence), una chica con ciertos problemas y no muy buena fama en el barrio. A pesar de su mutua desconfianza inicial, entre ellos pronto se desarrollará un vínculo muy especial que les ayudará a encontrar en sus vidas el lado bueno de las cosas.

[/size][/b][/color]



[/size][/b][/color]

Título: El lado bueno de las cosas
Título original: Silver Linings Playbook
País: USA 
Estreno en USA: 16/11/2012 
Estreno en España: 25/01/2013 
Productora: Weinstein Company 
Director: David O. Russell 
Guión: David O. Russell 
Reparto: Jennifer Lawrence, Bradley Cooper, Robert De Niro, Julia Stiles, Chris Tucker, Shea Whigham, Dash Mihok, Jacki Weaver, Romina, John Ortiz, Anupam Kher, Brea Bee, Montana Marks, Bonnie Aarons, Paul Herman


[/font][/size][/b]

General
Complete name: $1lv3r L1n1ngs Pl4yb000k[DVDSCR][ENG][Ekisde].avi
Format: AVI
Format/Info: Audio Video Interleave
File size: 869 MiB
Duration : 2h 1mn
Overall bit rate: 996 Kbps
Writing application: Lavf51.12.1

Video
ID  : 0
Format : MPEG-4 Visual
Format profile: [email protected]
Format settings, BVOP : No
Format settings, QPel : No
Format settings, GMC : No warppoints
Format settings, Matrix: Default (H.263)
Codec ID : DX50
Codec ID/Hint : DivX 5
Duration  : 2h 1mn
Bit rate : 665 Kbps
Width  : 720 pixels
Height : 480 pixels
Display aspect ratio : 3:2
Frame rate: 15.000 fps
Standard : NTSC
Color space: YUV
Chroma subsampling: 4:2:0
Bit depth : 8 bits
Scan type : Progressive
Compression mode : Lossy
Bits/(Pixel*Frame) : 0.128
Stream size: 580 MiB (67%)
Writing library: Lavc51.40.4

Audio
ID : 1
Format : MPEG Audio
Format version: Version 1
Format profile : Layer 3
Mode: Joint stereo
Codec ID : 55
Codec ID/Hint : MP3
Duration: 2h 1mn
Bit rate mode : Constant
Bit rate: 320 Kbps
Channel(s): 2 channels
Sampling rate: 44.1 KHz
Compression mode : Lossy
Stream size: 279 MiB (32%)
Alignment : Aligned on interleaves
Interleave, duration : 26 ms (0.39 video frame)
Writing library: LAME3.97


[/size][/b][/color]


[/size][/b][/color]



[/size][/color]

Unir con Jsplit


[/size][/color]
Silver Linings Playbook[SubEsp][DVDScreener][2012]
15 Puntos Score: 7.5/10
Visitas: 3570 Favoritos: 5
Ver los usuarios que votaron...
12 Comentarios Silver Linings Playbook[SubEsp][DVDScreener][2012]
Muchas gracias!!!
Noooo pero esos subtitulos que? Estan pesimos!!! A seguir esperando!!!
@sirmauro loce, sigo esperando unos mejores subs
@sirmauro subi otros subtitulos checalos y dime como andan
si fueron los que subi?
Muchas Gracias.
Gracias, la estaba esperando.

Enlace youtube inválido
Muchas gracias  
bien descargando
links caidos!!!
Para dejar un comentario Registrate! o.. eres ya usuario? Accede!