Paul [Comedia][Audio Latino][DvdRip][2011][PL]



Hola, en este post, decidi subir una pelicula recomendadisisima, Paul es su nombre es muy buena pelicula, si eres mexicano pues tu vas a identificar con el tipo de lenguaje, pero tambien los los otros paises latinoamericanos, se reiran mucho con esta cinta que tiene ciencia ficcion con comedia para adolescentes bueno que mas te puedo decir aqui la pelicula:












Este alienígena, llamado Paul, lleva 60 años instalado en una base militar de alta seguridad. Por razones desconocidas, este sabelotodo viajero del espacio decide escaparse y subir al primer vehículo que encuentra, una caravana de alquiler en la que viajan los terrícolas Graeme Willy (Pegg) y Clive Collings (Frost).



Titulo Original: Paul
Titulo Hispano: Paul
Idioma: Español Latino
País: USA
Año: 2011
Género: Comedia. Aventuras. Ciencia ficción | Extraterrestres. Road Movie. Amistad
Tamaño: 600 Mb
Calidad Imagen: DVDRip

[/color][/font][/b]

Complete name: Paul.AudioLatino.avi
Format  : AVI
Format/Info  : Audio Video Interleave
File size: 667 MiB
Duration  : 1h 49mn
Overall bit rate: 853 Kbps
Writing application  : Lavf51.12.1

Video
ID: 0
Format   : MPEG-4 Visual
Format profile  : [email protected]
Format settings, BVOP : No
Format settings, QPel: No
Format settings, GMC: No warppoints
Format settings, Matrix: Default (H.263)
Codec ID : DX50
Codec ID/Hint: DivX 5
Duration: 1h 49mn
Bit rate: 521 Kbps
Width: 720 pixels
Height : 480 pixels
Display aspect ratio: 3:2
Frame rate: 23.976 fps
Standard: NTSC
Color space: YUV
Chroma subsampling: 4:2:0
Bit depth: 8 bits
Scan type: Progressive
Compression mode: Lossy
Bits/(Pixel*Frame): 0.063
Stream size: 407 MiB (61%)
Writing library: Lavc51.40.4

Audio
ID : 1
Format : MPEG Audio
Format version: Version 1
Format profile : Layer 3
Mode  : Joint stereo
Codec ID : 55
Codec ID/Hint : MP3
Duration: 1h 49mn
Bit rate mode: Constant
Bit rate: 320 Kbps
Channel(s) : 2 channels
Sampling rate: 44.1 KHz
Compression mode: Lossy
Stream size: 250 MiB (38%)
Alignment: Aligned on interleaves
Interleave, duration: 26 ms (0.63 video frame)
Writing library: LAME3.97










[/color][/font][/b]

Descromprimir con Jsplit aqui abajo te dejo el link.
Cabe la posibilidad que si Kim Dotcom lanza con exito el sitio mega.co.nz e identi.li lo admite como host que seria absurdo de no agregarlo subiria mis archivos alli y ya no en putlocker, sockshare, ni 4shared.



[/size][/color]
Paul [Comedia][Audio Latino][DvdRip][2011][PL]
10 Puntos Score: 5/10
Visitas: 2266 Favoritos: 6
Ver los usuarios que votaron...
12 Comentarios Paul [Comedia][Audio Latino][DvdRip][2011][PL]
@.Bardock. gracias por pasar c:  
aguante paul amigo
Gracias no la he visto  
hi el programa para descomprimir ya no esta no se si me puedas pasar  al linck de descargas gracia y muy buen aporte  
problema al descomprir...archivo da?
@ades_200 Ya lo subi a otro host
@fersho1979 tienes que unirlo con el hjsplit
si lo que tuve que hacer es cambiarle el nombre al 4 archivo tal y como los primeros 3 y ya no marco error. Saludos.
Gracias por el aporte men  
gracias por compartir, enlacens en l?
jajaja muy buena la empece a ver y no la pude terminar grax  
Para dejar un comentario Registrate! o.. eres ya usuario? Accede!