The Truman Show [Latino][Dvdrip][Sockshare][1998]



Hola, en este post les traigo unclasico de la comedia y de quien mas, jim carrey esta es una buena pelicula, la verdad muchas carcajadas les va sacar este actorazo, esta pelicula la parti para poder subirla mas rapido, creo que de ahora en adelante, voy a usar este metodo

[/font][/size]


[/font][/size]

[/font][/size]

Truman Burbank es un hombre corriente y algo inocente que vive en una idílica población donde todo es perfecto. LLeva toda la vida allí, y nunca ha salido más allá de los límites del pueblo. En su vida no hay problemas pero, a lo largo de los últimos días, extraños sucesos le hacen sospechar de que algo extraño ocurre?

[/size][/b][/color]
Titulo Original: The Truman Show
Titulo Hispano: El Show de Truman
Idioma: Español Latino
País: USA
Año: 1998


[/size][/color]

General
Complete name:    h3.tr4m4n.sh0w[ekisde][identi].avi
Format : AVI
Format/Info: Audio Video Interleave
File size: 761 MiB
Duration: 1h 42mn
Overall bit rate: 1 034 Kbps
Writing application: VirtualDubMod 1.5.10.2 (build 2540/release)
Writing library: VirtualDubMod build 2540/release

Video
ID  : 0
Format : MPEG-4 Visual
Format profile: Advanced [email protected]
Format settings, BVOP: 1
Format settings, QPel: No
Format settings, GMC : No warppoints
Format settings, Matrix : Custom
Codec ID : XVID
Codec ID/Hint : XviD
Duration : 1h 42mn
Bit rate : 832 Kbps
Width: 608 pixels
Height : 352 pixels
Display aspect ratio: 16:9
Frame rate: 23.976 fps
Original frame rate: 25.000 fps
Color space: YUV
Chroma subsampling: 4:2:0
Bit depth: 8 bits
Scan type: Progressive
Compression mode: Lossy
Bits/(Pixel*Frame): 0.162
Stream size: 613 MiB (81%)
Writing library: XviD 1.2.0.dev47 (UTC 2006-11-01)

Audio
ID: 1
Format: AC-3
Format/Info: Audio Coding 3
Format profile: Dolby Digital
Mode extension: CM (complete main)
Codec ID: 2000
Duration: 1h 42mn
Bit rate mode: Constant
Bit rate  : 192 Kbps
Channel(s): 2 channels
Channel positions: Front: L R
Sampling rate: 48.0 KHz
Bit depth : 16 bits
Compression mode : Lossy
Stream size: 141 MiB (19%)
Alignment  : Split accross interleaves
Interleave, duration: 42 ms (1.00 video frame)
Interleave, preload duration   : 500 ms






[/size][/b][/color]


[/color]

[/font][/size][/color]

Unir con Hjsplit aqui te dejo el programa




[/size][/color]
The Truman Show [Latino][Dvdrip][Sockshare][1998]
20 Puntos Score: 6.7/10
Visitas: 2247 Favoritos: 5
Ver los usuarios que votaron...
10 Comentarios The Truman Show [Latino][Dvdrip][Sockshare][1998]
esta pelicula esta muy buena la vi el a?
@nandott gracias, estoy trbajando en unos mejores (:
@altets si, yo tambien la mire, al principio solo era para ver si tenia errores, de audio o algo asi , pero me termino encantando, y pues muy decidido termine subiendola  
Buen aporte se agradece sigue asi
esta bien chida esta peli, Gracias! la recomiendo
@ppipe2.0 si, ese es el proposito
@lopopo Si, esta muy buena la peli  
Bajando pero el 4 me dice espere 3 hr ....
@Ekisde
gran aporte
la verdad me encanto la pel?
gracias bro bajando  
Para dejar un comentario Registrate! o.. eres ya usuario? Accede!