Texas Chainsaw 3d [2013][CAM][PL][Sub.Esp][307MB]


Hola, este es otro post de una pelicula que acaba de estrenarse y me la consegui con un colega, asi que aqui esta la movie c:

[/size]



[/size]
En esta nueva secuela de la original, contará los acontecimientos que pasaron tras la película de 1974, en Newt, Texas, donde durante décadas las personas desaparecieron sin dejar rastro. La gente del pueblo sospechó durante mucho tiempo que la familia Sawyer, propietarios de un local de carretera, eran de alguna manera responsables de esas desapariciones.
Sus sospechas se confirmaron un caluroso día de verano, cuando una chica escapó de la casa de los Sawyer después de que asesinaran brutalmente a sus amigos. La palabra se extendió por todo el pueblo muy rápidamente y una multitud de lugareños enfurecidos rodearon la casa, la quemaron y mataron hasta el último miembro de la familia. O al menos eso habían pensado.
Décadas más tarde y a cientos de kilómetros de distancia de la matanza original, una joven llamada Heather (Alexandra Daddario) descubre que ha heredado una finca de un pueblo de Texas propiedad de una abuela que nunca supo que tenía. Después de embarcarse en un viaje junto a unos amigos para descucbrir de qué se trataba esa herencia, descubrirá que es la única propietaria de una mansión victoriana completamente aislada. Pero su nueva riqueza tendrá un precio, ya que se topará con un horror que le espera en los sótanos húmedos de la mansión.

[/size]



[/size]
Subtitulada al español
Título: 
Título original: Texas Chainsaw 3D
País: USA 
Estreno en USA: 04/01/2013 
Estreno en España: 
Productora: Twisted Pictures, Lionsgate 
Director: John Luessenhop 
Guión: Debra Sullivan, Adam Marcus, Stephen Susco 
Reparto: Alexandra Daddario, Tania Raymonde, Trey Songz, Keram Malicki-Sanchez, Shaun Sipos, Thom Barry, Paul Rae, Scott Eastwood, Richard Riehle, Gunnar Hansen, Marilyn Burns, John Dugan, Bill Moseley, Dan Yeager
[/color]
General
Complete name: Ch41ns4w CAM [Sub][Ekisde].avi
Format: AVI
Format/Info : Audio Video Interleave
File size: 332 MiB
Duration: 1h 26mn

Video
ID : 0
Format  : MPEG-4 Visual
Format profile : [email protected]
Format settings, GMC: No warppoints
Format settings, Matrix : Default (H.263)
Codec ID : DX50
Codec ID/Hint: DivX 5
Duration: 1h 26mn
Bit rate : 398 Kbps
Width : 684 pixels
Height: 284 pixels
Display aspect ratio: 2.40:1
Frame rate: 29.970 fps
Color space : YUV
Chroma subsampling: 4:2:0
Bit depth: 8 bits
Scan type : Progressive
Compression mode: Lossy
Bits/(Pixel*Frame): 0.068
Stream size: 245 MiB (74%)
Writing library  : Lavc51.40.4

Audio
ID : 1
Format : MPEG Audio
Format version : Version 1
Format profile : Layer 3
Mode: Joint stereo
Mode extension: MS Stereo
Codec ID: 55
Codec ID/Hint: MP3
Duration: 1h 26mn
Bit rate mode: Constant
Bit rate: 128 Kbps
Channel(s): 2 channels
Sampling rate : 44.1 KHz
Compression mode: Lossy
Stream size: 78.9 MiB (24%)
Interleave, duration: 26 ms (0.78 video frame)





[/size]




El archivo, lo pueden extraer con winrar, pero yo lo comprimi con 7zip aca te dejo el dejo el link del programa por si tienen problemas


[/size]
Texas Chainsaw 3d [2013][CAM][PL][Sub.Esp][307MB]
10 Puntos Score: 10/10
Visitas: 3038 Favoritos: 2
Ver los usuarios que votaron...
9 Comentarios Texas Chainsaw 3d [2013][CAM][PL][Sub.Esp][307MB]
sale tania raimonde ?
Cita Lios95: Mostrar
Si, ajajajajajajajajajaja  
sale sexi? o no?
Cita Lios95: Mostrar
Si, como alos 15 o 20 min. de la pelicula
Cita martin42: Mostrar
a lo mejor para ma?
no puedo ver el link amigo como le ago gracias se ve q esta buena
Cita willychiva: Mostrar
Dale click en ver los enlaces te va a abrir creo que una pagina depublicidad debes de darle click ala publicidad, y te dire el conteo de 15 en un cuadro rojo, no cierres la publicidad, te esperas a que finalize el conteo y listo tiene el link de putlocker de la pelicula  
Cita martin42: Mostrar
Creo que se ocurrio un error o algo asi, bueno a mi una vez me paso,y puede ser po que esta en mantenimiento o algo, pero si no es asi, lo que yo hice cuando me ocurrio el problema fue apagar desconectar el cable adsl y apagarlo porunos segundos luego lo enciendes y me dices aver como te fue  
Cita martin42: Mostrar
que bien que hayas podido bajarla  
Para dejar un comentario Registrate! o.. eres ya usuario? Accede!