Invictus [Latino][Dvdrip][Sockshare][2009]


Bueno este es mi segundo post, con ganas de hacer muchos mas, pero mas adelante, espero les sirva la pelicula, es muy buena, por favor comenten acerca del post y diganme en que me equivoco o como puedo mejorar para ofrecerles un un post de excelente calidad.
Bueno aqui la pelicula c:

[/font][/size]







Basada en el libro de John Carlin The Human Factor: Nelson Mandela and the Game That Changed the World, Invictus cuenta la verídica e inspiradora historia de cómo Nelson Mandela (Morgan Freeman) unió sus esfuerzos con el capitán del equipo de rugby de Sudáfrica, Francois Pienaar (Matt Damon), para ayudar a unir el país.
El recién elegido Presidente Mandela es consciente de que su nación sigue estando dividida tanto racialmente como económicamente debido a las secuelas del apartheid. Creyendo que puede unir a su pueblo a través del lenguaje universal del deporte, Mandela apoya al desamparado equipo de rugby de Sudáfrica cuando, con pocas probabilidades, participa en el Campeonato Mundial de 1995.



Título: Invictus
Título Original: Invictus
Género: Drama
Nacionalidad: USA
Año: 2009
Director: Clint Eastwood
Guión: Anthony Peckham
Reparto: Morgan Freeman, Matt Damon
Fecha de Estreno: Viernes, 29 de Enero de 2010


[/b][/font][/size]

General
Complete name: 1nv1ctu$[lat1n0][Ekisde].avi
Format: AVI
Format/Info : Audio Video Interleave
File size : 739 MiB
Duration : 2h 13mn
Overall bit rate : 773 Kbps
Writing application: Lavf51.12.1

Video
ID: 0
Format: MPEG-4 Visual
Format profile: [email protected]
Format settings, BVOP: No
Format settings, QPel : No
Format settings, GMC: No warppoints
Format settings, Matrix  : Default (H.263)
Codec ID : DX50
Codec ID/Hint  : DivX 5
Duration: 2h 13mn
Bit rate: 441 Kbps
Width : 624 pixels
Height  : 272 pixels
Display aspect ratio: 2.25:1
Frame rate : 25.000 fps
Color space : YUV
Chroma subsampling  : 4:2:0
Bit depth: 8 bits
Scan type : Progressive
Compression mode : Lossy
Bits/(Pixel*Frame): 0.104
Stream size : 421 MiB (57%)
Writing library: Lavc51.40.4

Audio
ID: 1
Format : MPEG Audio
Format version : Version 1
Format profile: Layer 3
Mode : Joint stereo
Codec ID : 55
Codec ID/Hint: MP3
Duration: 2h 13mn
Bit rate mode  : Constant
Bit rate: 320 Kbps
Channel(s): 2 channels
Sampling rate: 44.1 KHz
Compression mode : Lossy
Stream size: 306 MiB (41%)
Alignment: Aligned on interleaves
Interleave, duration: 26 ms (0.65 video frame)
Writing library : LAME3.97

[/font][/size][/color]








El archivo, lo pueden extraer con winrar, pero yo lo comprimi con 7zip aca te dejo el dejo el link del programa por si tienen problemas

[/color]


[/size][/color]
Invictus [Latino][Dvdrip][Sockshare][2009]
35 Puntos Score: 7/10
Visitas: 7375 Favoritos: 2
Ver los usuarios que votaron...
19 Comentarios Invictus [Latino][Dvdrip][Sockshare][2009]
No sale el link
Cita troys666: Mostrar
Si, esta el link, Tienes que darle click ala publicidad y esperarte los 15 seg. que marca y luego te aparecera el link
Gran pelicula..gracias por compartirla..
Cita leddek: Mostrar
Gracias luego suba mas  
@Ekisde no sale el link despues de los 15 segundos sale ya puedes descargar y no sale nada mas, ya me ha pasado con varias cosas q quiero descargar, es como problema de identi ya q en varios computadores y en varios pcs no me funca y los q he podido descargar es porque me manda directo al jdownloader. @neofidodido, @maxpower, @cesar_villar
@pipomac1 que navegador usas? Tenes flash instalado y actualizado?
Fijate si probando con otro navegador podes..
@pipomac1 Bueno pues como dice @cesar_villa tienes la version de flash, la ultima, yo uso google chrome y nunca eh tenido problema con esto, prueba con google chrome haber que pasa
@cesar_villar, @Ekisde y si ya tengo actualizado el flash player y como digo en carios pcs en colombia no me funca y aqui la prueba
a no sube la imagen ya miro como la subo
listo la prueba
@pipomac1 te envie un mensaje con el link de la pelicula
Muchas Gracias.
Gracias descargando!
Para dejar un comentario Registrate! o.. eres ya usuario? Accede!