educap
"Por qué algo y no más bien nada?"

69-Sweet Charity-Noches de la ciudad-Dual eng+esp

Tambien conocida como Las noches de Cabiria



Amo esta peli, dejadme solo con el encanto de la dulce Mc Line. Ver a Mc Line y morir. Se las recomiendo, no sé si estará Las noches de Cabiria que subi unos meses atrás, de mi otro amor del cine, Giulieta Masina... esta esta basada en esa peli, y esas son las cosas que para mi dan como justificada mi paso por este mundo.

Ahhh Bob fose el tipo de la coreografia esa es el mismo del principito (digamos ekl que hace bailar ese baile raro a la serpiente). Aca es identificable la pantera rosa en los bailes, el primero me parece magistral, los restantes medio que me cansan.

Charity es una mujer que comercializa su cuerpo, pero sobre todo es una mujer que siente.













Charity Hope Valentine es la proverbial prostituta con el corazón de oro; siempre a la espera del amor que llegará a alegrar su vida. Mientras, se gana la vida "fichando" en un salón de baile de Nueva York, y tiene simpáticas (y excéntricas) aventuras por la ciudad, hasta que un día conoce a Oscar Lindquist, un contador muy formal, y decide dar un giro a su vida..


Opinion de un usuario de la web:


Joya, así de simpleAprendí a amar los musicales desde muy pequeño.
En mi casa eran muy aficionados y en mi dieta cinematográfica nunca faltaron platos como The Sound of Music, My Fair Lady o Funny Face. Pero el primer musical que me gustó como propio, el primero que vi por mi cuenta, fue Sweet Charity, mismo que vi por primera vez en cine, hace veinte años.
Haberlo descubierto una tarde a principios de 1988, fue cortesía de el hermano mayor de uno de mis amigos de la infancia, que nos dijo un día que nos llevaría al cine, no a ver una de esas horrorosas películas de terror que en esa época nos gustaban tanto, sino a ver un musical en 70 mm y toda la cosa, aprovechando que lo reponían en una sala que hoy ya no existe en la Ciudad de México.
Me picaba la curiosidad ver esta película que no conocía -- aunque sabía que existía igual que la obra de teatro- y no acabaré nunca de agradecerle que me presentara, tal y como debe ser vista, la primera película de ese maestrazo que era Bob Fosse.
La trama gira en torno a las aventuras (y desventuras) de una joven que sólo quería ser amada, cuyo nombre es Charity Hope Valentine




.

Avi xvid
Español de España!
1 gb
mega
Uploader educap



General
Complete name                            1969-noches en la ciudad.avi
Format                                   : AVI
Format/Info                              : Audio Video Interleave
File size                                : 987 MiB
Duration                                 : 2h 27mn
Overall bit rate mode                    : Variable
Overall bit rate                         : 935 Kbps

Video
ID                                       : 0
Format                                   : MPEG-4 Visual
Format settings, BVOP                    : Yes
Format settings, QPel                    : No
Format settings, GMC                     : No warppoints
Format settings, Matrix                  : Default (H.263)
Codec ID                                 : DX50
Codec ID/Hint                            : DivX 5
Duration                                 : 2h 27mn
Bit rate                                 : 656 Kbps
Width                                    : 512 pixels
Height                                   : 288 pixels
Display aspect ratio                     : 16:9
Frame rate                               : 25.000 fps
Color space                              : YUV
Chroma subsampling                       : 4:2:0
Bit depth                                : 8 bits
Scan type                                : Progressive
Compression mode                         : Lossy
Bits/(Pixel*Frame)                       : 0.178
Stream size                              : 693 MiB (70%)
Writing library                          : DivX 5.2.1 (WaffleDay) (UTC 2004-09-08)

Audio #1
ID                                       : 1
Format                                   : MPEG Audio
Format version                           : Version 1
Format profile                           : Layer 3
Mode                                     : Joint stereo
Mode extension                           : MS Stereo
Codec ID                                 : 55
Codec ID/Hint                            : MP3
Duration                                 : 2h 27mn
Bit rate mode                            : Variable
Bit rate                                 : 128 Kbps
Channel(s)                               : 2 channels
Sampling rate                            : 48.0 KHz
Compression mode                         : Lossy
Stream size                              : 140 MiB (14%)
Alignment                                : Aligned on interleaves
Interleave, duration                     : 24 ms (0.60 video frame)
Interleave, preload duration             : 139 ms
Title                                    : Audio
Writing library                          : LAME3.90.
Encoding settings                        : -m j -V 4 -q 2 -lowpass 17.6 --abr 128

Audio #2
ID                                       : 2
Format                                   : MPEG Audio
Format version                           : Version 1
Format profile                           : Layer 3
Mode                                     : Joint stereo
Mode extension                           : MS Stereo
Codec ID                                 : 55
Codec ID/Hint                            : MP3
Duration                                 : 2h 27mn
Bit rate mode                            : Variable
Bit rate                                 : 128 Kbps
Channel(s)                               : 2 channels
Sampling rate                            : 48.0 KHz
Compression mode                         : Lossy
Stream size                              : 132 MiB (13%)
Alignment                                : Aligned on interleaves
Interleave, duration                     : 24 ms (0.60 video frame)
Interleave, preload duration             : 336 ms
Title                                    : Audio
Writing library                          : LAME3.90.
Encoding settings                        : -m j -V 4 -q 2 -lowpass 17.6 --abr 128






De la web...










Enlaces De Descarga


educap






Resubida a enero 2015






69-Sweet Charity-Noches de la ciudad-Dual eng+esp
10 Puntos Score: 10/10
Visitas: 1800 Favoritos: 2
Ver los usuarios que votaron...
18 Comentarios 69-Sweet Charity-Noches de la ciudad-Dual eng+esp
Yo les diria una cosa, descarguen esta joya, porque no se si la van a encontrar ma?
Cita educap: Mostrar
EL Jdown me los reconoce como caidos pero copiando de la carpeta los reconoce OK  
es excelente la peli lastima que est en espa?
Me he quedao en la part.4 y ya me sale el resto como No habidos  
Puedes reponerlos de algun modo???? Que fregados estan los Host ahora...  
Cita joseamat: Mostrar
@joseamat mira este enlace te descarga en un solo archivo zip fijate si te conviene
ahhh el jd si le pones la carpeta te lee solo algunos archos, lo mejor seria descargar enlace por enlace manualmente, o acyivar para que tome los enlaces del portapapeles y asi no creo que tengan probl?
@educap No entiendo   mismo Link pero me los baja Ok...
Internet parece cada vez m?
Un gran musical.... de los mejores, la vi hace much?
sera posible q la vuelvas a resubir, gracias
@pueblitos1 @satanasx estan resubidos a enero 2015 perdon por no poder antes
Todo bien educap, la descargue de la paginaa de Mega que se despliega al copiar y pegar el link de Mega, al principio no sabia que seguia pero encontre como hacerloy se fueron descargando de a poco los 9 links, despues los descomprimi y voila !!!! la pelicula en formato Avi en audio dual, con los subtitulos aparte. Muchisimas gracias por esta pelicula antiquisima de  la Shirley MacLaine.  
Cita LASC59: Mostrar
Gracias por darle una oportunidad  
Cita finalu: Mostrar
Para dejar un comentario Registrate! o.. eres ya usuario? Accede!