Naxogps2
"CDVDF"
Oops.. Este post tiene los enlaces eliminados!

Identi revisa las denuncias de los usuarios en busca de enlaces eliminados que no dejan descargar los archivos, este mensaje te informa que este post que estas viendo tiene los enlaces eliminados.

Usa el Buscador

Por favor, te recomendamos que uses el buscador para encontrar más alternativas.

Inception 2010 [1080P Bluray] [Sub] [Pl]

  • Categoría: Reciclaje
  • Publicado hace más de 3 años






8.0








ÍTULO ORIGINAL Inception

AÑO 2010

DURACIÓN 148 min.

PAÍS

DIRECTOR Christopher Nolan

GUIÓN Christopher Nolan

MÚSICA Hans Zimmer

FOTOGRAFÍA Wally Pfister

REPARTO Leonardo DiCaprio, Ken Watanabe, Joseph Gordon-Levitt, Marion Cotillard, Ellen Page, Tom Hardy, Cillian Murphy, Tom Berenger, Michael Caine, Dileep Rao, Lukas Haas, Pete Postlethwaite, Talulah Riley, Miranda Nolan

PRODUCTORA Coproducción USA-Reino Unido Warner Bros. Pictures / Legendary Pictures / Syncopy Production


PREMIOS 2010: 4 Oscars: mejor fotografía, sonido, ef. sonoros y ef. visuales. 8 nominaciones

2010: Globos de Oro: 4 nominaciones: mejor película drama, director, guión, BSO

2010: 3 Premios BAFTA técnicos. 9 nominaciones, incluyendo mejor película y director

2010: Satellite Awards: Mejor fotografía, dirección artística, BSO. 11 nominaciones

2010: Asociación de Críticos de los Angeles: Mejor diseño de producción

GÉNERO Ciencia ficción. Thriller. Intriga | Thriller futurista. Robos & Atracos

SINOPSIS Dom Cobb (DiCaprio) es un experto en el arte de apropiarse, durante el sueño, de los secretos del subconsciente ajeno. La extraña habilidad de Cobb le ha convertido en un hombre muy cotizado en el mundo del espionaje, pero también lo ha condenado a ser un fugitivo y, por consiguiente, a renunciar a llevar una vida normal. Su única oportunidad para cambiar de vida será hacer exactamente lo contrario de lo que ha hecho siempre: la incepción, que consiste en implantar una idea en el subconsciente en lugar de sustraerla. Sin embargo, su plan se complica debido a la intervención de alguien que parece predecir cada uno de sus movimientos, alguien a quien sólo Cobb podrá descubrir. (FILMAFFINITY)































Formato: MKV

Peso: 10 GB.

Resolucion: 1920 X 800

Calidad: Full HD

Audio: Ingles

Subtitulos: Ingles - Español Srt


--------------------------------------------------


General


Complete name : Inception (2010).Naxoguitarraps2refined-inception-1080p.mkv

Format : Matroska

Format version : Version 2

File size : 10.9 GiB


Duration : 2h 28mn


Overall bit rate : 10.6 Mbps


Encoded date : UTC 2010-11-15 00:19:10


Writing application : mkvmerge v4.4.0 ('Die Wiederkehr') built on Oct 31 2010 21:52:48


Writing library : libebml v1.0.0 + libmatroska v1.0.0


Video



ID : 1


Format : AVC


Format/Info : Advanced Video Codec


Format profile : [email protected]


Format settings, CABAC : Yes


Format settings, ReFrames : 5 frames


Codec ID : V_MPEG4/ISO/AVC


Duration : 2h 28mn


Bit rate : 9 048 Kbps


Width : 1 920 pixels


Height : 800 pixels


Display aspect ratio : 2.40:1


Frame rate : 23.976 fps


Color space : YUV


Chroma subsampling : 4:2:0


Bit depth : 8 bits


Scan type : Progressive


Bits/(Pixel*Frame) : 0.246


Stream size : 9.15 GiB (84%)


Writing library : x264 core 107 r1766 f9f0035


Language : English


Default : Yes


Forced : No



Audio



ID : 2


Format : DTS


Format/Info : Digital Theater Systems


Codec ID : A_DTS


Duration : 2h 28mn


Bit rate mode : Constant


Bit rate : 1 510 Kbps


Channel(s) : 6 channels


Channel positions : Front: L C R, Side: L R, LFE


Sampling rate : 48.0 KHz


Bit depth : 24 bits


Compression mode : Lossy


Stream size : 1.56 GiB (14%)


Language : English


Default : Yes


Forced : No






Sin Pass















Utiliza JDownloader




Inception 2010 [1080P Bluray] [Sub] [Pl]
25 Puntos Score: 8.3/10
Visitas: 1470 Favoritos: 1
Ver los usuarios que votaron...
38 Comentarios Inception 2010 [1080P Bluray] [Sub] [Pl]
Nunca me paso lo de la restriccion??,..
en mexico, no hay tal restriccion
Puse lo de saltarse la restriccion por si acaso
por favor especifica que es micro1080p, y no es 1080p.
1080p es 1920x1080p , esto es 1920x800
Cita facebook: Mostrar

Sabia que alguien me lo iba a decir xD

Sobre este tema ya se ha hablado mucho, y lo que es cierto es que tanto 1920 X 1080 como 1920 X 800 tienen la misma calidad de video en tema de peliculas. La unica diferencia es que 1920 X 1080 ocupa toda la pantalla y 1920 X 800 tiene esas tipicas bandas negras de las peliculas, sin embargo, la calidad es exactamente igual
no es igual, ya que le faltan 280 pixeles de alto, pero siempre hay ignorantes como vos que no le importa  
Cita facebook: Mostrar

Te dije que la calidad es exactamente igual, los 280 pixeles de alto es solo para rellenar la pantalla, no te da ni mas ni menos calidad.

No te vengas a hacer el vivo aca por favor, se mas respetuoso.
yo discrepo, pero esta bien lo que tu pienses.
Lo que yo digo, ?
Cita facebook: Mostrar
Gracias por molestarte en explicarme  
Cita facebook: Mostrar

No hay problema.
Excelente peli amigo pero tengo un problema con la parte 2 y no pude repararlo con ninguno de los link q pusiste para arreglarlos. Si me podrias ayudar te lo agradeceria, perdon por la ignarancia. Saludos.
hola groso, ante que nada muchas gracias por el aporte!! perdon que te moleste, ya baje 5 veces el archivo 2 y siempre al descomprimir me da error, podras resubirlo por favor? muchas gracias!!
Gente, alguien le puede mandar un mensaje privado al que hizo el post? Yo intento pero no me deja porque no tengo suficiente rango. No funciona el archivo 02, da ERROR. Muchas gracias!!
Naxo amigo la parte 2 q pusiste tampoco anda, dice q esta rota!!!!
@Naxogps2 deberias checar las partes una por una ya que sigue tirando el error gracias
che, el problema me estoy dando cuenta que no esta en el archivo 02, sino en el 01. Si abren el rar 01, el mkv esta dentro de la carpeta, y en el resto de los archivos el mkv esta fuera de la carpeta. Me parece que el que esta mal es el rar 01. podras subir la version correspondiente? gracias!!
amigo igual que a muchos me manda error en el 2 y ya utilice los rev y ni asi me funciona.
(una pregunta, la subiste tu o de otra pagina)
Cita adimichina: Mostrar

Eso es obvio porque no tienes todos los archivos
Cita blacklabel: Mostrar

Yo, si en la misma carpeta dice Naxoguitarraps2
bueno che, no se cual es el problema entonces, pero todos tenemos problemas al descomprimir el archivo 02
Creo que el error es de Putlocker

Asi que intenten con este de Rapidshare: https://rapidshare.com/files/2116607852/Inception.part02.rar

Por cierto, los archivos rev para utilizarlos bien, tienen que darle click derecho al primer rar, darle click en "extraer ficheros" no le den a "extraer aqui", luego eligen la carpeta donde guardar y ya esta, el archivo solo se reconstruira.
gracias capo, ahora lo pruebo y te digo
capo, hice como dijiste e igual da error al reconstruir, ahora estoy bajando nuevamente el archivo a ver si tengo suerte
Cita adimichina: Mostrar

.-. Intenta con el otro link de Rapidshare
ahora paso el 2 y da error el 8
Cita adimichina: Mostrar

Pero te funciono el de Rapidshare?
si, baje el 2 de rapidshare, al descomprimir dio error el 8
Cita adimichina: Mostrar

Entonces era problema de Putlocker, deja que subo los que te falten.
dale, por ahora da error el 8. gracias!!
aqui seguimos esperando... uuu que relajo por una peli.
y groso? te olvidaste?
no che, lo acabo de bajar y da el mismo error en el archivo 8.
ya fue, no te preocupes.
Para dejar un comentario Registrate! o.. eres ya usuario? Accede!