Naxogps2
"CDVDF"
Oops.. Este post tiene los enlaces eliminados!

Identi revisa las denuncias de los usuarios en busca de enlaces eliminados que no dejan descargar los archivos, este mensaje te informa que este post que estas viendo tiene los enlaces eliminados.

Usa el Buscador

Por favor, te recomendamos que uses el buscador para encontrar más alternativas.

Inception [1080 Bluray] [Sub] [Pl]

  • Categoría: Reciclaje
  • Publicado hace más de 3 años






8.0










ÍTULO ORIGINAL   Inception

AÑO 2010

DURACIÓN 148 min.

PAÍS

DIRECTOR Christopher Nolan

GUIÓN Christopher Nolan

MÚSICA Hans Zimmer

FOTOGRAFÍA Wally Pfister

REPARTO Leonardo DiCaprio, Ken Watanabe, Joseph Gordon-Levitt, Marion Cotillard, Ellen Page, Tom Hardy, Cillian Murphy, Tom Berenger, Michael Caine, Dileep Rao, Lukas Haas, Pete Postlethwaite, Talulah Riley, Miranda Nolan

PRODUCTORA Coproducción USA-Reino Unido Warner Bros. Pictures / Legendary Pictures / Syncopy Production


PREMIOS 2010: 4 Oscars: mejor fotografía, sonido, ef. sonoros y ef. visuales. 8 nominaciones

2010: Globos de Oro: 4 nominaciones: mejor película drama, director, guión, BSO

2010: 3 Premios BAFTA técnicos. 9 nominaciones, incluyendo mejor película y director

2010: Satellite Awards: Mejor fotografía, dirección artística, BSO. 11 nominaciones

2010: Asociación de Críticos de los Angeles: Mejor diseño de producción

GÉNERO Ciencia ficción. Thriller. Intriga | Thriller futurista. Robos & Atracos

SINOPSIS Dom Cobb (DiCaprio) es un experto en el arte de apropiarse, durante el sueño, de los secretos del subconsciente ajeno. La extraña habilidad de Cobb le ha convertido en un hombre muy cotizado en el mundo del espionaje, pero también lo ha condenado a ser un fugitivo y, por consiguiente, a renunciar a llevar una vida normal. Su única oportunidad para cambiar de vida será hacer exactamente lo contrario de lo que ha hecho siempre: la incepción, que consiste en implantar una idea en el subconsciente en lugar de sustraerla. Sin embargo, su plan se complica debido a la intervención de alguien que parece predecir cada uno de sus movimientos, alguien a quien sólo Cobb podrá descubrir. (FILMAFFINITY)






































Formato: MKV

Peso: 10 GB.

Resolucion: 1920 X 800

Calidad: Full HD

Audio: Ingles

Subtitulos: Ingles - Español Srt


--------------------------------------------------


General


Complete name : G:PeliculasMi TopInception (2010).Naxoguitarraps2efined-inception-1080p.mkv

Format : Matroska


Format version : Version 2


File size : 10.9 GiB


Duration : 2h 28mn


Overall bit rate : 10.6 Mbps


Encoded date : UTC 2010-11-15 00:19:10


Writing application : mkvmerge v4.4.0 ('Die Wiederkehr') built on Oct 31 2010 21:52:48


Writing library : libebml v1.0.0 + libmatroska v1.0.0



Video



ID : 1


Format : AVC


Format/Info : Advanced Video Codec


Format profile : [email protected]


Format settings, CABAC : Yes


Format settings, ReFrames : 5 frames


Codec ID : V_MPEG4/ISO/AVC


Duration : 2h 28mn


Bit rate : 9 048 Kbps


Width : 1 920 pixels


Height : 800 pixels


Display aspect ratio : 2.40:1


Frame rate : 23.976 fps


Color space : YUV


Chroma subsampling : 4:2:0


Bit depth : 8 bits


Scan type : Progressive


Bits/(Pixel*Frame) : 0.246


Stream size : 9.15 GiB (84%)


Writing library : x264 core 107 r1766 f9f0035


Language : English


Default : Yes


Forced : No



Audio



ID : 2


Format : DTS


Format/Info : Digital Theater Systems


Codec ID : A_DTS


Duration : 2h 28mn


Bit rate mode : Constant


Bit rate : 1 510 Kbps


Channel(s) : 6 channels


Channel positions : Front: L C R, Side: L R, LFE


Sampling rate : 48.0 KHz


Bit depth : 24 bits


Compression mode : Lossy


Stream size : 1.56 GiB (14%)


Language : English


Default : Yes


Forced : No







23 Links 500 MB - 5 Archivos Recuperacion





Utiliza JDownloader


Inception [1080 Bluray] [Sub] [Pl]
0 Puntos Score: 0/10
Visitas: 887 Favoritos: 0
0 Comentarios Inception [1080 Bluray] [Sub] [Pl]
Este post no tiene comentarios. Sea el primero!
Para dejar un comentario Registrate! o.. eres ya usuario? Accede!