Zero Dark Thirty 2012 DVDSCR H264 AC3 [V.O.]


TÍTULO ORIGINAL: Zero Dark Thirty
AÑO: 2012
DURACIÓN: 157 min.
PAÍS: Estados Unidos
DIRECTOR: Kathryn Bigelow
GUIÓN: Mark Boal
MÚSICA: Alexandre Desplat
FOTOGRAFÍA: Greig Fraser
REPARTO: Jessica Chastain, Joel Edgerton, Taylor Kinney, Kyle Chandler, Jennifer Ehle, Mark Strong, Chris Pratt, Mark Duplass, Harold Perrineau, Jason Clarke, Édgar Ramírez, Scott Adkins, Frank Grillo, Lee Asquith-Coe, Fredric Lehne, James Gandolfini, Reda Kateb
PRODUCTORA: Columbia Pictures / Annapurna Pictures
GÉNERO: Thriller. Acción | Basado en hechos reales. Terrorismo

PREMIOS:
2012: Globos de Oro: 4 nominaciones, incluyendo mejor película drama
2012: National Board of Review (NBR): Mejor película, director y actriz (Chastain)
2012: Círculo de Críticos de Nueva York: Mejor película, dirección y fotografía
2012: Satellite Awards: Mejor guión original. 5 nominaciones, incluyendo Mejor película
2012: Asociación de Críticos de Los Angeles: Mejor montaje
2012: American Film Institute: Top 10 - Mejores películas del año


SINOPSIS:
Thriller sobre la operación militar que acabó con la vida de Osama Bin Laden, líder de Al Quaeda. El título original, Zero Dark Thirty hace referencia a la hora: las 00:30 de la madrugada del 1 de mayo de 2011, momento en que el comando SEAL de los marines penetró en la residencia de Bin Laden en Pakistán para eliminar al hombre más buscado de la historia.

Format                                   : Matroska
Format version                           : Version 2
File size                                : 2.73 GiB
Duration                                 : 2h 36mn
Overall bit rate                         : 2 486 Kbps


Video

Duration                                 : 2h 36mn
Bit rate                                 : 2 052 Kbps
Width                                    : 720 pixels
Height                                   : 384 pixels
Display aspect ratio                     : 1.85:1
Frame rate mode                          : Constant
Frame rate                               : 29.970 fps
Color space                              : YUV
Chroma subsampling                       : 4:2:0
Bit depth                                : 8 bits
Scan type                                : Progressive
Bits/(Pixel*Frame)                       : 0.248
Stream size                              : 2.25 GiB (83%)
Writing library                          : x264 core 120
Language                                 : English


Audio
ID                                       : 2
Format                                   : AC-3
Format/Info                              : Audio Coding 3
Duration                                 : 2h 36mn
Bit rate mode                            : Constant
Bit rate                                 : 384 Kbps
Channel(s)                               : 2 channels
Channel positions                        : Front: L R
Sampling rate                            : 48.0 KHz
Bit depth                                : 16 bits
Compression mode                         : Lossy
Stream size                              : 431 MiB (15%)

Enjoy

Greetz -- Everyone..


CAPTURAS:










BillionUploads



Más Mirros (PutLocker) en UDENTI: http://www.udenti.li/index.php?topic=4298
Zero Dark Thirty 2012 DVDSCR H264 AC3 [V.O.]
0 Puntos Score: 0/10
Visitas: 2184 Favoritos: 2
5 Comentarios Zero Dark Thirty 2012 DVDSCR H264 AC3 [V.O.]
Me la llevo..gracias..
y los subtitulos en espa?
OSAMA TE EXTRA?
jajajjaa, osama nunca murio es una mentira....
Para dejar un comentario Registrate! o.. eres ya usuario? Accede!