Skyfall 2012 DVDSCR XviD [V.O + Sub Esp]


TÍTULO ORIGINAL: Skyfall
AÑO: 2012
DURACIÓN: 143 min.
PAÍS: Reino Unido
DIRECTOR: Sam Mendes
GUIÓN: Neal Purvis, Robert Wade, John Logan (Personaje: Ian Fleming)
MÚSICA: Thomas Newman
FOTOGRAFÍA: Roger Deakins
REPARTO: Daniel Craig, Judi Dench, Javier Bardem, Ralph Fiennes, Naomie Harris, Bérénice Marlohe, Albert Finney, Ben Whishaw, Rory Kinnear, Ola Rapace, Helen McCrory, Nicholas Woodeson, Elize du Toit, Ben Loyd-Holmes, Tonia Sotiropoulou, Orion Lee
PRODUCTORA: MGM / Columbia Pictures / Albert R. Broccoli / Eon Productions / B23
GÉNERO: Acción. Thriller | James Bond. Espionaje

PREMIOS:
2012: Satellite Awards: Mejor actor de reparto (Bardem) 7 nomin., incluy. Mejor película
2012: Asociación de Críticos de Los Angeles: Mejor fotografía
2012: Globos de Oro: Nominada a Mejor canción original

SINOPSIS:
La lealtad de James Bond (Daniel Craig), el mejor agente de los servicios británicos, hacia su superiora M (Judi Dench) se verá puesta a prueba cuando el pasado de ella vuelve para atormentarla. Al mismo tiempo, el MI6 sufre un ataque, y 007 tendrá que localizar y destruir el grave peligro que representa el villano Silva (Javier Bardem). Para conseguirlo contará con la ayuda de la agente Eve (Naomie Harris).

Genre:Action | Adventure | Crime
Language :English
Subtitles: Spanish in srt
IMDb: imdb.com/title/tt1074638/
Source: P2P Thanks
Encoder: Tony


Format                                   : AVI
Format/Info                              : Audio Video Interleave
File size                                : 1.39 GiB
Duration                                 : 2h 23mn
Overall bit rate                         : 1 389 Kbps

Video
ID                                       : 0
Format                                   : MPEG-4 Visual
Format profile                           : Advanced [email protected]
Format settings, BVOP                    : 1
Format settings, QPel                    : No
Format settings, GMC                     : No warppoints
Format settings, Matrix                  : Default (H.263)
Codec ID                                 : XVID
Codec ID/Hint                            : XviD
Duration                                 : 2h 23mn
Bit rate                                 : 1 188 Kbps
Width                                    : 640 pixels
Height                                   : 264 pixels
Display aspect ratio                     : 2.40:1
Frame rate                               : 23.976 fps
Color space                              : YUV
Chroma subsampling                       : 4:2:0
Bit depth                                : 8 bits
Scan type                                : Progressive
Compression mode                         : Lossy
Bits/(Pixel*Frame)                       : 0.293
Stream size                              : 1.19 GiB (86%)
Writing library                          : XviD 1.2.1 (UTC 2008-12-04)

Audio
ID                                       : 1
Format                                   : AC-3
Format/Info                              : Audio Coding 3
Mode extension                           : CM (complete main)
Codec ID                                 : 2000
Duration                                 : 2h 23mn
Bit rate mode                            : Constant
Bit rate                                 : 192 Kbps
Channel(s)                               : 2 channels
Channel positions                        : Front: L R
Sampling rate                            : 48.0 KHz
Bit depth                                : 16 bits
Compression mode                         : Lossy
Stream size                              : 197 MiB (14%)
Alignment                                : Aligned on interleaves
Interleave, duration                     : 42 ms (1.00 video frame)
Interleave, preload duration             : 512 ms


Plot:
 Bond's loyalty to M is tested as her past comes back to haunt her. As MI6
comes under attack, 007 must track down and destroy the threat, no matter
how personal the cost.


CAPTURAS:









BillionUploads


Más Mirros (PutLocker) en UDENTI: http://www.udenti.li/index.php?topic=4138

ENLACES iNTERCAMBiABLES
Skyfall 2012 DVDSCR XviD [V.O + Sub Esp]
2 Puntos Score: 2/10
Visitas: 1365 Favoritos: 0
Ver los usuarios que votaron...
7 Comentarios Skyfall 2012 DVDSCR XviD [V.O + Sub Esp]
 buenaaa @krip2nite te pasaste, tremendo aporte maestro!!!!  
bajando antes q se vaya el a?
GRACIASSSSSSSSSSSSSSSSSSSS.....AMO ESTA ENTREGAAAAAAAAAAAAAAAAA-
GRacias.. DEscargando
DE AGASAAAAJJOOO MAESTROOOO
Para dejar un comentario Registrate! o.. eres ya usuario? Accede!