Extrañas Apariciones[Sub][Hechos reales][AVI y HD]




Extrañas Apariciones[Sub][Basada en Hechos reales][AVI y HD]










TÍTULO ORIGINAL The Haunting in Connecticut

AÑO  2009

DURACIÓN 92 min.

PAÍS Estados Unidos

DIRECTOR Peter Cornwell

GUIÓN Tim Metcalfe, Adam Simon

MÚSICA Robert J. Kral

FOTOGRAFÍA Adam Swica

REPARTO Virginia Madsen, Martin Donovan, Elias Koteas, Kyle Gallner, Amanda
Crew

PRODUCTORA  Lionsgate Films / Gold Circle Films

GÉNERO  Terror | Posesiones/Exorcismos. Sobrenatural. Basado en hechos reales

SINOPSIS  Tras recibir la noticia de que su hijo adolescente, Matt, tiene cáncer, Sarah y
Peter Campbell deciden trasladar a toda la familia cerca de la clínica dónde Matt
está siendo tratado. El lugar elegido es una imponente casa de estilo victoriano que oculta un oscuro pasado como antigua funeraria en la que sucedieron terribles
acontecimientos. La familia empieza a presenciar violentos y extraños fenómenos
que, al principio, asocian con el estrés provocado por la enfermedad. Pronto se darán cuenta de que se enfrentan a oscuras y terroríficas fuerzas de origen
sobrenatural.




















Información Técnica
AVI

General
Complete name              : HAUNTING_IN_CONNECTICUT_Título_01_01.avi
Format                         : AVI
Format/Info                   : Audio Video Interleave
File size                        : 760 MiB
Duration                       : 1h 42mn
Overall bit rate mode      : Variable
Overall bit rate               : 1 037 Kbps

Video
ID                                 : 0
Format                          : AVC
Format/Info                    : Advanced Video Codec
Format profile                 : [email protected]
Format settings, CABAC    : No
Format settings, ReFrames: 2 frames
Format settings, GOP        : M=1, N=24
Codec ID                        : H264
Duration                         : 1h 42mn
Bit rate mode                  : Variable
Bit rate                          : 891 Kbps
Maximum bit rate             : 1 350 Kbps
Width                          : 848 pixels
Height                         : 480 pixels
Display aspect ratio       : 16:9
Frame rate                   : 29.970 fps
Color space                  : YUV
Chroma subsampling       : 4:2:0
Bit depth                      : 8 bits
Scan type                    : Progressive
Bits/(Pixel*Frame)          : 0.073
Stream size                   : 653 MiB (86%)

Audio
ID                             : 1
Format                      : MPEG Audio
Format version            : Version 1
Format profile              : Layer 3
Mode                          : Joint stereo
Mode extension            : MS Stereo
Codec ID                     : 55
Codec ID/Hint               : MP3
Duration                      : 1h 42mn
Bit rate mode               : Constant
Bit rate                       : 128 Kbps
Channel(s)                   : 2 channels
Sampling rate               : 44.1 KHz
Compression mode         : Lossy
Stream size                  : 93.8 MiB (12%)
Alignment                     : Aligned on interleaves
Interleave, duration        : 26 ms (0.78 video frame)
Interleave, preload duration   : 26 ms
Writing library                : LAME3.98.2

MKV

General

Complete name                  : HAUNTING_IN_CONNECTICUT.mkv
Format                             : Matroska
Format version                  : Version 1
File size                            : 2.95 GiB
Duration                           : 1h 42mn
Overall bit rate mode          : Variable
Overall bit rate                  : 4 115 Kbps
Encoded date                    : UTC 2012-12-18 21:14:45
Writing library                    : WonderShare Matroska Muxer

Video
ID                                : 1
Format                         : AVC
Format/Info                   : Advanced Video Codec
Format profile                 : [email protected]
Format settings, CABAC    : No
Format settings, ReFrames: 2 frames
Format settings, GOP        : M=1, N=24
Codec ID                        : V_MPEG4/ISO/AVC
Duration                         : 1h 42mn
Bit rate mode                  : Variable
Bit rate                          : 3 841 Kbps
Maximum bit rate              : 6 000 Kbps
Width                             : 1 280 pixels
Height                            : 720 pixels
Display aspect ratio          : 16:9
Frame rate mode              : Constant
Frame rate                      : 30.000 fps
Color space                     : YUV
Chroma subsampling          : 4:2:0
Bit depth                         : 8 bits
Scan type                       : Progressive
Bits/(Pixel*Frame)             : 0.139
Stream size                     : 2.75 GiB (93%)
Default                           : Yes
Forced                            : No

Audio
ID                                : 2
Format                         : AC-3
Format/Info                   : Audio Coding 3
Mode extension               : CM (complete main)
Format settings, Endianness    : Big
Codec ID                             : A_AC3
Duration                              : 1h 42mn
Bit rate mode                       : Constant
Bit rate                               : 192 Kbps
Channel(s)                           : 2 channels
Channel positions                  : Front: L R
Sampling rate                       : 48.0 KHz
Bit depth                             : 16 bits
Compression mode                 : Lossy
Delay relative to video            : -33ms
Stream size                           : 141 MiB (5%)
Default                                 : Yes
Forced                                 : No

Calidad: DVD Rip (Se encuentra en 2 versiones AVI y MKV 720p). 
Tamaño: 760mb(3 partes de 200mb y 1 de 121mb) ó si quieres en una mejor calidad 2.9 gb(9 partes de 300mb y 1 parte de 242mb)
Duración: 92 min.
Formato: AVI y MKV respectivamente
Idiomas: Inglés 2.0
Subtitulos: Español(incorporados)



Links de descarga por 4shared
(Pelicula en AVI)



Pelicula MKV 720p a través de Jdownloader o Mipony
(Archivos alojados en Putlocker)



don7004


Nota: Pelicula ripeada del DVD original



Otros aportes:

Batman el caballero de la noche asciende en DVD9
Gangster americano en DVD9
Sin lugar para los débiles en DVD
Extrañas Apariciones[Sub][Hechos reales][AVI y HD]
20 Puntos Score: 10/10
Visitas: 6860 Favoritos: 5
Ver los usuarios que votaron...
9 Comentarios Extrañas Apariciones[Sub][Hechos reales][AVI y HD]
gracias por compartir bro, hace tiempo que queria ver esta peli  
es muy buena peli ! recomendada !
la familia, y el caso de connecticut, me parece fue ahi, si fue real pero en el aspecto de problemas familiares,el chamaco era drogadicto y  todosl os datos apuntan a explicaciones logicas y simples, muy comun en familias a punto de desintegrarse por mala economia, emfermedades y drogas
 
yo ya la vi y esta muy buena la peli  
Gracias a ustedes @Yado @DAnGOoCL @KILLER79 @maurimza77 @vallepa69 @oviviescas por tomarse su tiempo de venir a comentar y gracias a ti @Arry2006 por los 10
Saludos
Para dejar un comentario Registrate! o.. eres ya usuario? Accede!