educap
"Por qué algo y no más bien nada?"

1995-La princesita-Exclusivo-K-Latino



Otra de mis pelis favoritas

Resubido diciembre 2014














Info en wikipedia 
http://es.wikipedia.org/wiki/La_princesita




General
Complete name                    : D:La princesita.avi
Format                           : AVI
Format/Info                      : Audio Video Interleave
File size                        : 700 MiB
Duration                         : 1h 37mn
Overall bit rate                 : 1 006 Kbps
Writing application              : VirtualDubMod 1.5.4.1 (build 2178/release)
Writing library                  : VirtualDubMod build 2178/release

Video
ID                               : 0
Format                           : MPEG-4 Visual
Format profile                   : Advanced [email protected]
Format settings, BVOP            : 1
Format settings, QPel            : No
Format settings, GMC             : No warppoints
Format settings, Matrix          : Custom
Codec ID                         : XVID
Codec ID/Hint                    : XviD
Duration                         : 1h 37mn
Bit rate                         : 807 Kbps
Width                            : 512 pixels
Height                           : 384 pixels
Display aspect ratio             : 4:3
Frame rate                       : 23.976 fps
Color space                      : YUV
Chroma subsampling               : 4:2:0
Bit depth                        : 8 bits
Scan type                        : Progressive
Compression mode                 : Lossy
Bits/(Pixel*Frame)               : 0.171
Stream size                      : 562 MiB (80%)
Writing library                  : XviD 1.2.0.dev47 (UTC 2006-11-01)

Audio
ID                               : 1
Format                           : AC-3
Format/Info                      : Audio Coding 3
Format profile                   : Dolby Digital
Mode extension                   : CM (complete main)
Codec ID                         : 2000
Duration                         : 1h 37mn
Bit rate mode                    : Constant
Bit rate                         : 192 Kbps
Channel(s)                       : 2 channels
Channel positions                : Front: L R
Sampling rate                    : 48.0 KHz
Bit depth                        : 16 bits
Compression mode                 : Lossy
Delay relative to video          : 967ms
Stream size                      : 134 MiB (19%)
Alignment                        : Split accross interleaves
Interleave, duration             : 96 ms (2.30 video frames)
Interleave, preload duration     : 96 ms
Language                         : Spanish








latino!
700MB
Mega
Uploader educap













educap



1995-La princesita-Exclusivo-K-Latino
40 Puntos Score: 8/10
Visitas: 3057 Favoritos: 3
Ver los usuarios que votaron...
11 Comentarios 1995-La princesita-Exclusivo-K-Latino
Horale..gracias por el  aporte a favoritos.. exelente
The little Princess... ahhh    

 
Cita MxBartrixg: Mostrar

Cita DonatoM: Mostrar
de nada gracias por pasar y dejar sus comentarios  
gracias!   esta peli es re linda  
Cita creep16: Mostrar
gracias a ti y a los que dejaron puntos a esta hermosa peli  
Gracias por este gran aporte son las peliculas de la infancia!!!!!!!!!!!!!!!!!!  
Cita pazpg89: Mostrar
gracias a vos por pasar  
es caida podrias resubirla gracias
@Ray_20 @mili_mb15 perdon que tarde tanto en resubir, si aun la buscan ahi esta
PARA LA TABLET DE MI ESPOSA GRACIAS  
Para dejar un comentario Registrate! o.. eres ya usuario? Accede!