Como Sobrevivir A Un Rockero [2010][BrRip][Latino]

Como Sobrevivir A Un Rockero [2010] [BrRip] [Latino]





Cita: Mostrar




Cita: Mostrar




Cita: Mostrar








http://www.putlocker.com/file/B53308AC5C6FC89D

Como Sobrevivir A Un Rockero [2010][BrRip][Latino]
5 Puntos Score: 5/10
Visitas: 2410 Favoritos: 2
Ver los usuarios que votaron...
5 Comentarios Como Sobrevivir A Un Rockero [2010][BrRip][Latino]
esta peli es una ofensa a los rockeros???  
Cita TheDB86: Mostrar
Que sensible y pelotudo que sos hermano, Sonrrie que la vida pasa pronto.
es Pop mas que rock pero se agradece y la he visto ya, la bajare porke me gusto es graciosa y +5 para ti
C:Documents and SettingsALEXEscritorioComo.sobrevivir.a.un.rockero.Lat.avi
   General
      Complete name : C:Documents and SettingsALEXEscritorioComo.sobrevivir.a.un.rockero.Lat.avi
      Format : AVI
      Format/Info : Audio Video Interleave
      File size : 701 MiB
      Duration : 1h 53mn
      Overall bit rate : 861 Kbps
      Writing application : VirtualDubMod 1.5.10.2 (build 2542/release)
      Writing library : VirtualDubMod build 2542/release
   Video #0
      ID : 0
      Format : MPEG-4 Visual
      Format profile : Advanced [email protected]
      Format settings, BVOP : 2
      Format settings, QPel : No
      Format settings, GMC : No warppoints
      Format settings, Matrix : Default (H.263)
      Muxing mode : Packed bitstream
      Codec ID : DX50
      Codec ID/Hint : DivX 5
      Duration : 1h 53mn
      Bit rate : 740 Kbps
     Width : 608 pixels
      Height : 336 pixels

      Display aspect ratio : 16:9
      Frame rate : 23.976 fps
      Color space : YUV
      Chroma subsampling : 4:2:0
      Bit depth : 8 bits
      Scan type : Progressive
      Compression mode : Lossy
      Bits/(Pixel*Frame) : 0.151
      Stream size : 603 MiB (86%)
      Writing library : XviD 1.2.1 (UTC 2008-12-04)
   Audio #1
      ID : 1
      Format : MPEG Audio
      Format version : Version 1
      Format profile : Layer 3
      Codec ID : 55
      Codec ID/Hint : MP3
      Duration : 1h 53mn
      Bit rate mode : Constant
      Bit rate : 112 Kbps
      Channel(s) : 2 channels
      Sampling rate : 48.0 KHz
      Compression mode : Lossy
      Stream size : 91.2 MiB (13%)
      Alignment : Aligned on interleaves
      Interleave, duration : 42 ms (1.00 video frame)
      Interleave, preload duration : 504 ms
      Writing library : LAME3.98r
      Encoding settings : -m s -V 4 -q 2 -lowpass 15.6 -b 112

no es brrip  
se agradece la bajare a penas pueda
Para dejar un comentario Registrate! o.. eres ya usuario? Accede!