The Walking Dead S03E07 [Ingl?s, subtitulado] HDTV

The Walking Dead S03E07: When the Dead Come Knocking.





General
Complete name :The Walking Dead S03E07
Format : AVI
Format/Info : Audio Video Interleave
File size : 381 MiB
Duration : 43mn 18s
Overall bit rate: 1 228 Kbps
Writing application: MEncoder SVN-r22963
Writing library: MPlayer

Video
ID : 0
Format: MPEG-4 Visual
Format profile: [email protected]
Format settings, BVOP: No
Format settings, QPel : No
Format settings, GMC  : No warppoints
Format settings, Matrix: Default (H.263)
Codec ID : XVID
Codec ID/Hint : XviD
Duration : 43mn 18s
Bit rate: 1 056 Kbps
Width: 640 pixels
Height: 352 pixels
Display aspect ratio: 16:9
Frame rate: 23.976 fps
Color space: YUV
Chroma subsampling : 4:2:0
Bit depth: 8 bits
Scan type: Progressive
Compression mode: Lossy
Bits/(Pixel*Frame) : 0.196
Stream size: 327 MiB (86%)
Writing library : Lavc51.40.2

Audio
ID: 1
Format : MPEG Audio
Format version : Version 1
Format profile : Layer 3
Codec ID: 55
Codec ID/Hint: MP3
Duration: 43mn 18s
Bit rate mode: Constant
Bit rate: 160 Kbps
Channel(s): 2 channels
Sampling rate: 44.1 KHz
Compression mode: Lossy
Stream size: 49.6 MiB (13%)
Alignment: Aligned on interleaves
Interleave, duration: 26 ms (0.63 video frame)
Interleave, preload duration: 522 ms
Writing library: LAME3.97










The Walking Dead S03E07 [Ingl?s, subtitulado] HDTV
10 Puntos Score: 5/10
Visitas: 1639 Favoritos: 3
Ver los usuarios que votaron...
12 Comentarios The Walking Dead S03E07 [Ingl?s, subtitulado] HDTV
ya vi este capitulo esta genial de todas formas gracias por compartir  
todo bien excepto por el servidor amigo esta de hueva la descarga pero gracias
suban en espa?
es peor que rapidgarcha esto
@darek1 @AnimeDD karelia es uno de los mejores servidores que hay..si tenes problemas para la descarga instala un acelerador y te baja excelente..
@Misanthropus gracias por compartir..saludos
@anamza Gracias por lo puntines bro, la verdad yo no tengo ninguna queja hasta el momento de este servidor es muy bueno  
@egosum82 Gracias amigo por lo puntos  
amigo cual es la contrase?
@TheDB86 ninguno de mis archivos que subo le coloco contrase?
Para dejar un comentario Registrate! o.. eres ya usuario? Accede!