[Solo Audio: Latino] SAGA: Piratas del Caribe [4S]

------------------------------------------------------------------------------
Hola, antes que nada quería agradecer a las personas que saben valorar el esfuerzo que lleva hacer un post y de conseguir el mejor material posible a esta comunidad! -Gracias por quienes comentan y comparten..-
-----------------------------------------------------------------------------
También quería invitar a toda la comunidad y en especial a los amantes de la música electrónica a que se unan a mi pagina en Facebook
--Electro House en su Estado Mas PURO--
(Información de este proyecto en Descripción de la pagina)
(Click en la imagen para dirigirse a esta)


-------------------------------------------------------------------------------
Bueno, ahora si vamos con el post!

[Solo Audio: Latino]
SAGA: Piratas del Caribe


Piratas del Caribe:
La Maldición del Perla Negra





INFORMACION DEL AUDIO

Duration: 2:23:10

Format: AC-3
Format/Info: Audio Coding 3
Mode extension: CM (complete main)
Bit rate mode: Constant
Bit rate: 384 Kbps
Channel(s): 6 channels
Channel positions: Front: L C R, Side: L R, LFE
Sampling rate: 48.0 KHz
Stream size: 393 MiB (100%)




Enlaces De Descarga




Piratas del Caribe:
El Cofre del Hombre Muerto





INFORMACION DEL AUDIO
Duration: 2:30:39
Format: AC-3
Format/Info: Audio Coding 3
Mode extension: CM (complete main)
Bit rate mode: Constant
Bit rate: 640 Kbps
Channel(s): 6 channels
Channel positions: Front: L C R, Side: L R, LFE
Sampling rate: 48.0 KHz
Stream size: 690 MiB (100%)




Enlaces De Descarga



Piratas del Caribe:
En el Fin del Mundo




INFORMACION DEL AUDIO
Duration: 2:48:30
Format: AC-3
Format/Info: Audio Coding 3
Mode extension: CM (complete main)
Bit rate mode: Constant
Bit rate: 640 Kbps
Channel(s): 6 channels
Channel positions: Front: L C R, Side: L R, LFE
Sampling rate: 48.0 KHz
Stream size: 771 MiB (100%)




Enlaces De Descarga



Piratas del Caribe:
En Mareas Misteriosas





INFORMACION DEL AUDIO
Duration: 2:16:23
Format: AC-3
Format/Info: Audio Coding 3
Mode extension: CM (complete main)
Bit rate mode: Constant
Bit rate: 384 Kbps
Channel(s): 6 channels
Channel positions: Front: L C R, Side: L R, LFE
Sampling rate: 48.0 KHz
Stream size: 375 MiB (100%)





Enlaces De Descarga


--------------------------------------------------------------------------------------------------------------------
Unete a Nuestra Comunidad!
 

--------------------------------------------------------------------------------------------------------------------




[Solo Audio: Latino] SAGA: Piratas del Caribe [4S]
37 Puntos Score: 7.4/10
Visitas: 6709 Favoritos: 10
Ver los usuarios que votaron...
25 Comentarios [Solo Audio: Latino] SAGA: Piratas del Caribe [4S]
gracias por los audios
@ruly_ De nada! me encontr?
@zLeninxDD   Gracias por pasarte y los puntinees!  
gracias amigo y por reavivar un poco la comunidad de solo audios
las ultimas dos se llaman igual???
buen aporte a descargar  
@rodrigolf y se vienen muchos mas aportes!
@danger91 Jeje, de nada! ya lo correg?
Genial Gracias, me van a ser ?
GRACIAS BROOO +10
@TR4UL05 Recien me las iva a descarar en ingles 1000 gracias por los audios latinos. Una pregunta se les  puede agregar a las peliculas en .mp4 con el mkvtoolnix o antes es necesario convertirlos a .mkv o, existe algun software destinado solo para .mp4? Espero y puedas responderme   de antemano gracias.
@bluefenix Si, el MKVToolnix resiste casi cualquier formato y lo lleva a un mkv en cuesti?
@TR4UL05 Hola, gracias por tu pronta respuesta pero... me tope con un inconveniete al multiplexar una peli en .mp4 con el mkvtoolnix. Lo que pasa es que al terminar todo el proceso lo reprodusco en mi compu y todo bien pero, al querer reproducir en otra compu no se puede (en ambas use vlc) y mas raro aun al pasar la peli a una caja multimedia para verla en la tv, solo se escucha pero no se ve   eh buscado alguna respuesta en san google pero sin exito aun  
@TR4UL05 Una disculpa  , olvide comentar que los audios se escuchan perfecto   Muchas gracias  
@bluefenix Te recomiendo usar un Pack de codecs de v?
@TR4UL05 Ok, el problema para  reproducirlo en la compu quedaria solucionado   pero realmente el que me interesa y a la vez me intriga es poder reproducirlo en una como ESTA Una vez mas gracias por tu pronta respuesta y espero no estar abusando de tu buena voluntad  
@bluefenix Jmm, hay si no se, no se mucho de estos aparatos.. Lo que te diga es mentira.. Saludos  
@TR4UL05   Aun asii muchas gracias por tu valioso tiempo   seguire buscando alguna solucion. Tambien estare muy atento a tus aportes.   GRAN TRABAJO
@TR4UL05 Podrias revisar el ultimo audio, de la 4ta pelicula, he intentado bajarlo muchas veces y siempre me baja corrupto. Gracias Crack.  
Amigo podrias conseguir el audio latino de BEN-HUR 50 aniversario?
@TR4UL05 Se agradece, lo mas dificil de conseguir son los audios latino y ademas 5.1 canales!!!  
amigo se te agradece mucho  
Demasiadas gracias!
""Hola, antes que nada quer?
Para dejar un comentario Registrate! o.. eres ya usuario? Accede!