Why Stop Now 2012 BRRip [EN][Sub]

Why Stop Now 2012 BRRi









Título original: Why Stop Now
País: USA 
Estreno en USA: 17/08/2012 
Estreno en España: 
Productora: IFC Films 
Director: Phil Dorling, Ron Nyswaner 
Guión: Ron Nyswaner 
Reparto: Jesse Eisenberg, Melissa Leo, Tracy Morgan, Isiah Whitlock Jr., Sarah Ramos, Emma Rayne Lyle, Stephanie March, Tanya Wright

Sinopsis:
'Why Stop Now' narra la historia de Eli Smith (Jesse Eisenberg), un prodigio del piano que trata de ayudar a su madre con problemas, Penny (Melissa Leo). Para obtener ayuda acude a un traficante de drogas llamado Sprinkles (Tracy Morgan), justo el día en el que tiene que presentarse para una audición en un prestigioso programa musical. A partir de ahí toda una espiral de acontecimientos para este grupo de inadaptados que tendrá que enfrentarse a los errores del pasado, a los desafíos del futuro y a posibles amoríos.


General
Complete name                            : Why Stop Now 2012 LIMITED BRRip x264 AAC-UNiQUE.mp4
Format                                   : MPEG-4
Format profile                           : Base Media
Codec ID                                 : isom
File size                                : 700 MiB
Duration                                 : 1h 27mn
Overall bit rate mode                    : Variable
Overall bit rate                         : 1 112 Kbps
Encoded date                             : UTC 2012-11-20 09:30:41

Video
ID                                       : 1
Format                                   : AVC
Format/Info                              : Advanced Video Codec
Format profile                           : [email protected]
Format settings, CABAC                   : Yes
Format settings, ReFrames                : 3 frames
Codec ID                                 : avc1
Codec ID/Info                            : Advanced Video Coding
Duration                                 : 1h 27mn
Bit rate mode                            : Variable
Bit rate                                 : 788 Kbps
Maximum bit rate                         : 40.0 Mbps
Width                                    : 720 pixels
Height                                   : 304 pixels
Display aspect ratio                     : 2.35:1
Frame rate mode                          : Constant
Frame rate                               : 23.976 fps
Color space                              : YUV
Chroma subsampling                       : 4:2:0
Bit depth                                : 8 bits
Scan type                                : Progressive
Bits/(Pixel*Frame)                       : 0.150
Stream size                              : 496 MiB (71%)
Writing library                          : x264 core 129 r2230 1cffe9f

Audio
ID                                       : 2
Format                                   : AAC
Format/Info                              : Advanced Audio Codec
Format profile                           : LC
Codec ID                                 : 40
Duration                                 : 1h 27mn
Bit rate mode                            : Variable
Bit rate                                 : 321 Kbps
Maximum bit rate                         : 387 Kbps
Channel(s)                               : 6 channels
Channel positions                        : Front: L C R, Side: L R, LFE
Sampling rate                            : 48.0 KHz
Compression mode                         : Lossy
Stream size                              : 202 MiB (29%)
Language                                 : English
Encoded date                             : UTC 2012-11-20 09:31:09

Subtitles                         : Hardcoded English on source for foreign parts only.

Source                            : LIMITED.720p.BluRay.x264-SPARKS  









Enlaces De Descarga


Subtitulos
Why Stop Now 2012 BRRip [EN][Sub]
5 Puntos Score: 5/10
Visitas: 1602 Favoritos: 1
Ver los usuarios que votaron...
4 Comentarios Why Stop Now 2012 BRRip [EN][Sub]
ESTE TIO SE VOLVIO POR LAS PELICULAS DE BAJO PRESUPUESTO O AL MENOS LAS DE GUIONES MONOTONOS.
Why Stop Now 2012 LIMITED BRRip x264 AAC-UNiQUE.mp4   (MP4)
y las capturas dicen .avi
no entiendo
es dvdrip o brrip decidete  
Para dejar un comentario Registrate! o.. eres ya usuario? Accede!