2001 Una Odisea en el Espacio [subesp][1968][720p]

2001 Una Odisea En el Espacio
Esta canción nos remonta a la peli




Trailer




SINOPSIS
 La película de ciencia-ficción por excelencia de la historia del cine narra los diversos periodos de la historia de la humanidad, no sólo del pasado, sino también del futuro. Hace millones de años, antes de la aparición del "homo sapiens", unos primates descubren un monolito que los conduce a un estadio de inteligencia superior. Millones de años después, otro monolito, enterrado en una luna, despierta el interés de los científicos. Por último, durante una misión de la NASA, HAL 9000, una máquina dotada de inteligencia artificial, se encarga de controlar todos los sistemas de una nave espacial tripulada. (FILMAFFINITY)

 
TÍTULO ORIGINAL  2001: A Space Odyssey
AÑO:1968
DURACIÓN:139 min
DIRECTOR Stanley Kubrick
GUIÓN Stanley Kubrick & Arthur C. Clarke (Novela corta: Arthur C. Clarke)
MÚSICA Richard Strauss, Johann Strauss
FOTOGRAFÍA Geoffrey Unsworth
REPARTO Keir Dullea, Gary Lockwood, William Sylvester, Daniel Richter, Laonard Rossiter, Margaret Tyzack, Robert Beatty, Sean Sullivan, Frank Miller, Penny Brahms, Alan Gilfford, Vivian Kubrick
PRODUCTORA Coproducción Reino Unido-EEUU; Metro-Goldwyn-Mayer (MGM) / Stanley Kubrick Productions
PREMIOS 1968: Oscar: Mejores efectos visuales. 4 nominaciones: director, guión y dirección artística1968: Premios David di Donatello: Mejor producción extranjera
GÉNERO
 
 Ciencia ficción | Aventura espacial. Película de culto


Caracteristicas

Format: RealMedia
File size: 469 MiB
Duration : 2h 21mn
Overall bit rate: 455 Kbps
Movie name: 2001- A Space Odyssey
Subtitles: Español (incluidos)
Video

Format: RealVideo 4
Codec ID: RV40
Codec ID/Info: Based on AVC (H.264), Real Player 9
Duration: 2h 21mn
Bit rate: 391 Kbps
Width: 704 pixels
Height: 396 pixels
Display aspect ratio: 16:9
Frame rate: 23.976 fps
Bits/(Pixel*Frame): 0.058
Stream size: 395 MiB (84%)

Audio
ID: 0
Format: Cooker
Codec ID: cook
Codec ID/Info: Based on G.722.1, Real Player 6
Duration: 2h 21mn
Bit rate: 64.1 Kbps
Channel(s): 2 channels
Sampling rate: 44.1 KHz
Bit depth: 16 bits
Stream size: 64.9 MiB (14%)


Imagenes





Links de Descarga Carpeta con 4 lins de 100MB y uno de 65MB
Dentro de estos archivos hay un block de notas con los links










¡¡No te olvides de comentar!!
Y gracias por pasar
...
2001 Una Odisea en el Espacio [subesp][1968][720p]
23 Puntos Score: 5.8/10
Visitas: 5176 Favoritos: 5
Ver los usuarios que votaron...
19 Comentarios 2001 Una Odisea en el Espacio [subesp][1968][720p]
Excelente pelicula, Kubrick un grande
@PinkFloyd1  me encantan sus peliculas, de culto!!
@pirlina muchisimas gracias disfrutala!
@gixe_87 Oye la part. 03, 04, 05 estan muerta. Favor volver a subir
Todas las partes estan muertas, si la puedes volver a subir te lo agradecer?
Vuelve a subir las partes po loco!!!
ok pronto las subo  aguantenme @EuroGlam @LobaEstep1 @EuroGlam
AMIGO BAJE LAS CUATRO PARTES PERO LA ULTIMA NO ME LO PERMITE NO SE SI LA PUEDES VOLVER A SUBIR O HAY ALGUN PROBLEMA TE LO AGRADECERIA SOLO ESA PARTE ME FALTA Y QUIERO VER LA PELICULA
Hacia tiempo que la buscaba gracias
Descargado sin problemas; gracias por tu aporte.
DEscargando este clasico.... nunca me la he visto  
Gracias!
Para dejar un comentario Registrate! o.. eres ya usuario? Accede!