TED 2012 BluRayRip 720 Dual Castellano/Ingles

TED 2012 BluRayRip 720 Dual castellano/inglesCuando John Bennett (Mark Wahlberg) era pequeño, deseaba que su osito de peluche Ted fuera un oso de verdad y, por desgracia, su sueño se hizo realidad. Más de veinte años después, Ted sigue con John y saca de quicio a su novia Lori, que empieza a perder la paciencia. Para colmo, a John no parece preocuparle su futuro profesional y se pasa la vida fumando porros con Ted. A pesar de ello, John intenta alcanzar la madurez, pero parece que para conseguirlo le resulta indispensable la ayuda de Ted. TÍTULO ORIGINAL Ted
AÑO  2012
PAÍS EEUU
DIRECTOR Seth MacFarlane
GUIÓN Seth MacFarlane, Alec Sulkin, Wellesley Wild
MÚSICA Walter Murphy
FOTOGRAFÍA Michael Barrett
REPARTO Mark Wahlberg, Mila Kunis, Seth MacFarlane, Giovanni Ribisi, Laura Vandervoort, Joel McHale, Patrick Warburton, Jessica Stroup
PRODUCTORA Universal Pictures / Media Rights Capital
WEB OFICIAL http://www.tedesreal.es
GÉNERO Comedia. Fantástico | Comedia negra

General
Complete name   : Ted.2012.720p.BDRip.SPA.ENG.XviD.AC3.avi
Format  : AVI
Format/Info  : Audio Video Interleave
Format profile  : OpenDML
File size : 4.07 GiB
Duration : 1h 46mn
Overall bit rate: 5 493 Kbps

Video
ID    : 0
Format : MPEG-4 Visual
Format profile  : Advanced [email protected]
Format settings, BVOP : 2
Format settings, QPel: No
Format settings, GMC : No warppoints
Format settings, Matrix  : Default (MPEG)
Codec ID : XVID
Codec ID/Hint : XviD
Duration: 1h 46mn
Bit rate : 4 199 Kbps
Width : 1 280 pixels
Height: 688 pixels
Display aspect ratio  : 1.860
Frame rate : 23.976 fps
Color space   : YUV
Chroma subsampling : 4:2:0
Bit depth: 8 bits
Scan type  : Progressive
Compression mode : Lossy
Bits/(Pixel*Frame)  : 0.199
Stream size  : 3.11 GiB (76%)
Writing library : XviD 1.2.1 (UTC 2008-12-04)

Audio #1
ID: 1
Format  : AC-3
Format/Info  : Audio Coding 3
Mode extension  : CM (complete main)
Codec ID  : 2000
Duration : 1h 46mn
Bit rate mode : Constant
Bit rate  : 640 Kbps
Channel(s) : 6 channels
Channel positions : Front: L C R, Side: L R, LFE
Sampling rate : 48.0 KHz
Bit depth : 16 bits
Compression mode : Lossy
Stream size   : 485 MiB (12%)
Alignment  : Split accross interleaves
Interleave, duration: 42 ms (1.00 video frame)
Interleave, preload duration     : 500 ms

Audio #2
ID : 2
Format  : AC-3
Format/Info  : Audio Coding 3
Mode extension : CM (complete main)
Codec ID : 2000
Duration  : 1h 46mn
Bit rate mode  : Constant
Bit rate  : 640 Kbps
Channel(s): 6 channels
Channel positions : Front: L C R, Side: L R, LFE
Sampling rate : 48.0 KHz
Bit depth : 16 bits
Compression mode : Lossy
Stream size : 485 MiB (12%)
Alignment : Split accross interleaves
Interleave, duration : 42 ms (1.00 video frame)

Fuente: web


gamefront
sockshare
putlocker
 
sockshare 
putlocker 
gamefront 






Nuestro amigo @cesar_villar hizo excelente tutoriales para todos nosotros y aqui nos muestra como descargar desde identi, de todas las formas posible (actualmente 3 opciones).Videotutorial de como descargar aqui: http://www.identi.li/index.php?topic=88761
Otro videotutorial explicado por
@sudakita : http://www.identi.li/index.php?topic=99125
TED 2012 BluRayRip 720 Dual Castellano/Ingles
15 Puntos Score: 7.5/10
Visitas: 5667 Favoritos: 8
Ver los usuarios que votaron...
46 Comentarios TED 2012 BluRayRip 720 Dual Castellano/Ingles
Castellano es espa?
Exelente aporte pero GF...??
@wlt men castellano es castellano y espa?
Muchas gracias x el aporte en exelente calidad , una pregunta puedo que mar esta peli si se puede como hago?tengo windows 8 que quemador me recomiendas?y como hago para transformarlo a .iso?demora? hay otra forma de quemarlo ? Muchas gracias de nuevo  
gracias tienes ironman 720p      
@Xx_Stic_xX transformar una peli avi a iso hay un programa ultra iso yo uso el Ashampoo Burning Studio 2012 y grabr con velocida x4
@clapsoul oye men Gracias, que mejor que castellano de esos "Tios" espa?
te hago una consulta cuando tengas el audio latino para la version UNRATED BluRay 1080p 5.1CH x264 de ted lo podrias postear x favor?
@Tony.Lp mm ojala hoydia se ha demorado mucho la liberacion del la
@clapsoul Ok...Gracias Bro!
esperare..  
error de descarga   game front jajaajaj una burdes
que malo que sea castellano  
espero salga en latino, el castellano no es de mi agrado!!!!! seguire esperando, excelente aporte!!!!
la verdad, yo mire la peli en Latino y la Voz de Ted es horrenda, pierde muuuuucho la gracia, es mejor verla 100%   en INGLES!...
@SantGhac si pero la gente esta acostumabrada al latino yo por mi parte cuando salga en latino no la vere ya que ya la via y he visto peliculas en castellano y los espa?
Gran aporte! Hey, no lei en ningun lado si trae los subtitulos... los trae? internos o en un .srt? Gracias de nuevo por el aporte!
Cita clapsoul: Mostrar
jajajaja buen laburo
la acabo de bajar y est?
links caidos GF
Los links de gf estan temporalemente caidos o no se que onda men. para que lo suluciones por favor
links caidos latima
Entonces si esta en latino!! Espero la subas pronto por que no la encuentro!!
Amigo tengo problemas con el volumen 9 ,error en el fichero,
@miketreo tienes que descargar denuevo esa parte siempre pasa que se descarga mal o se da?
Pues ya baje la pelicula, pero me pide contrase?
la parte 2 de putlocker me da error y de los otros tambien :S
@cerorcv visita la fuente hay hay mas enlaces
ya la descargue y esta super todo anda bien ,la quiero tambien en audio .espa?
El link 7 no descarga y es una doble extension no funciona
pues el jdownloader le da error y no lo baja los demas sin problema @clapsoul
@clapsoul el link que me diste no enlanza con los demas al descomprimir
La parte 7 no es la misma que las otras y no funciona! @clapsoul
No puedo descomprimir porque la parte 7 no es igual que las otras! dame una solucion por favor!
@clapsoul Que ya lo he mirado y lo descargo y es otro que no concuerda con las demas partes
@rafaguti14  renombraste esa parte la reparaste con sfv que viene en los mismos link archivo de recuperacion de un 95%
@clapsoul si lo he hecho todo y no se repara da una solucion por favor
@clapsoul El archivos es irrecuperable deme una solucion rapido por favor
@rafaguti14 mm descargaste de los otros servidores en a la fuente oficial dile a jimy que te de una solucion men
@clapsoul no tengo cuenta en la fuente original y no puedo contactar con el
prero men tienes qu hacerte una cuenta y es raro que te alla dado problema esa parte a nadie mas le paso
Muchas gracias, justo lo q buscaba
 
Para dejar un comentario Registrate! o.. eres ya usuario? Accede!