TBBT s06 e07 [avi] [214.75 MB] [PL]

The Habitation Configuration





General
Complete name                            : TBBT S06 E07.avi
Format                                   : AVI
Format/Info                              : Audio Video Interleave
File size                                : 218 MiB
Duration                                 : 21mn 39s
Overall bit rate                         : 1 405 Kbps

Video
ID                                       : 0
Format                                   : MPEG-4 Visual
Format profile                           : Advanced [email protected]
Format settings, BVOP                    : 2
Format settings, QPel                    : No
Format settings, GMC                     : No warppoints
Format settings, Matrix                  : Default (H.263)
Codec ID                                 : XVID
Codec ID/Hint                            : XviD
Duration                                 : 21mn 39s
Bit rate                                 : 1 013 Kbps
Width                                    : 720 pixels
Height                                   : 400 pixels
Display aspect ratio                     : 16:9
Frame rate                               : 23.976 fps
Color space                              : YUV
Chroma subsampling                       : 4:2:0
Bit depth                                : 8 bits
Scan type                                : Progressive
Compression mode                         : Lossy
Bits/(Pixel*Frame)                       : 0.147
Stream size                              : 157 MiB (72%)
Writing library                          : XviD 1.2.1 (UTC 2008-12-04)

Audio
ID                                       : 1
Format                                   : AC-3
Format/Info                              : Audio Coding 3
Mode extension                           : CM (complete main)
Format settings, Endianness              : Big
Codec ID                                 : 2000
Duration                                 : 21mn 39s
Bit rate mode                            : Constant
Bit rate                                 : 384 Kbps
Channel(s)                               : 6 channels
Channel positions                        : Front: L C R, Side: L R, LFE
Sampling rate                            : 48.0 KHz
Bit depth                                : 16 bits
Compression mode                         : Lossy
Stream size                              : 59.5 MiB (27%)
Alignment                                : Aligned on interleaves
Interleave, duration                     : 64 ms (1.53 video frames)
Interleave, preload duration             : 192 ms
Title                                    : The.Big.Bang.Theory.S06E07.720p.HDTV.X264-DIMENSION - [1] 100ms_audio

                      

 http://www.putlocker.com/file/CABBD92343834D8F

                                   
 

 Subs dentro del rar....

                                  
   No tiene pass...
TBBT s06 e07 [avi] [214.75 MB] [PL]
0 Puntos Score: 0/10
Visitas: 680 Favoritos: 0
0 Comentarios TBBT s06 e07 [avi] [214.75 MB] [PL]
Este post no tiene comentarios. Sea el primero!
Para dejar un comentario Registrate! o.. eres ya usuario? Accede!