Oops.. Este post tiene los enlaces eliminados!

Identi revisa las denuncias de los usuarios en busca de enlaces eliminados que no dejan descargar los archivos, este mensaje te informa que este post que estas viendo tiene los enlaces eliminados.

Usa el Buscador

Por favor, te recomendamos que uses el buscador para encontrar más alternativas.

Stevie Ray Vaughan Live At Montreux 85 2S

  • Categoría: Reciclaje
  • Publicado hace más de 4 años






 Bueno petardos desagradecidos aporto esta pequeña  gran joyita espero sepan apreciar al maestro SRV

1. Program Start

2. Scuttle Buttin

3. Say What! 

4. Ain't Gone 'N' Give Up On Love 

5. Pride And Joy 

6. Mary Had A Little Lamb 

7. Cold Shot(with Johnny Copeland)

8. Tin Pan Alley (aka Roughest Place In Town)  

9. Look At Little Sister(with Johnny Copeland) 

10. Voodoo Child (Slight Return)

11. Texas Flood 

12. SRV Talking From Stage 

13. Life Without You 

14. Gone Home 

15. Couldn't Stand The Weather





General
            

Format                           : MPEG-4

Format profile                   : Base Media / Version 2

Codec ID                         : mp42

File size                        : 421 MiB

Duration                         : 1h 33mn



Video

ID                               : 1

Format                           : AVC

Format/Info                      : Advanced Video Codec

Format profile                   : [email protected]

Format settings, CABAC           : No

Format settings, ReFrames        : 1 frame

Codec ID                         : avc1

Codec ID/Info                    : Advanced Video Coding

Duration                         : 1h 33mn

Bit rate mode                    : Variable

Bit rate                         : 530 Kbps

Maximum bit rate                 : 1 313 Kbps

Width                            : 480 pixels

Height                           : 360 pixels

Display aspect ratio             : 4:3

Frame rate mode                  : Constant

Frame rate                       : 29.970 fps

Color space                      : YUV

Chroma subsampling               : 4:2:0

Bit depth                        : 8 bits

Scan type                        : Progressive

Bits/(Pixel*Frame)               : 0.102

Stream size                      : 355 MiB (84%)


Audio

ID                               : 2

Format                           : AAC

Format/Info                      : Advanced Audio Codec

Format profile                   : LC

Codec ID                         : 40

Duration                         : 1h 33mn

Bit rate mode                    : Variable

Bit rate                         : 96.0 Kbps

Maximum bit rate                 : 154 Kbps

Channel(s)                       : 2 channels

Channel positions                : Front: L R

Sampling rate                    : 44.1 KHz

Compression mode                 : Lossy

Stream size                      : 64.3 MiB (15%)


Para mis rips usa el mejor reproductor http://www.gomlab.com/eng/


http://www.2shared.com/file/9g8Ho4bd/S_R_V__L_A_Montreuxpart1.html

http://www.2shared.com/file/5BPjv370/S_R_V__L_A_Montreuxpart2.html

http://www.2shared.com/file/XjSmpKCd/S_R_V__L_A_Montreuxpart3.html




Seguirme si les gustaron las minas seguro que si





Nosotras seguimos a RAFADETH porque tu no?

Stevie Ray Vaughan Live At Montreux 85 2S
15 Puntos Score: 5/10
Visitas: 609 Favoritos: 1
Ver los usuarios que votaron...
2 Comentarios Stevie Ray Vaughan Live At Montreux 85 2S
@nolte  un gusto man me despido como uploader de esta web b?
Para dejar un comentario Registrate! o.. eres ya usuario? Accede!