Oops.. Este post tiene los enlaces eliminados!

Identi revisa las denuncias de los usuarios en busca de enlaces eliminados que no dejan descargar los archivos, este mensaje te informa que este post que estas viendo tiene los enlaces eliminados.

Usa el Buscador

Por favor, te recomendamos que uses el buscador para encontrar más alternativas.

Deep purple Machine head live 1972 Rip 2S

  • Categoría: Reciclaje
  • Publicado hace más de 4 años








Bueno amigos les dejo esta joyita deep purple disfruten comenten petardos kulebros dejen todos sus puntos 


General

Format                           : MPEG-4

Format profile                   : Base Media / Version 2

Codec ID                         : mp42

File size                        : 430 MiB

Duration                         : 1h 34mn

Overall bit rate                 : 640 Kbps

Writing application              : mp4creator 1.6.1d


Video

ID                               : 1

Format                           : MPEG-4 Visual

Format profile                   : [email protected]

Format settings, BVOP            : No

Format settings, QPel            : No

Format settings, GMC             : No warppoints

Format settings, Matrix          : Default (H.263)

Codec ID                         : 20

Duration                         : 1h 34mn

Bit rate mode                    : Variable

Bit rate                         : 512 Kbps

Maximum bit rate                 : 1 271 Kbps

Width                            : 480 pixels

Height                           : 360 pixels

Display aspect ratio             : 4:3

Frame rate mode                  : Constant

Frame rate                       : 25.000 fps

Color space                      : YUV

Chroma subsampling               : 4:2:0

Bit depth                        : 8 bits

Scan type                        : Progressive

Compression mode                 : Lossy

Bits/(Pixel*Frame)               : 0.119

Stream size                      : 344 MiB (80%)


Audio

ID                               : 2

Format                           : AAC

Format/Info                      : Advanced Audio Codec

Format profile                   : LC

Codec ID                         : 40

Duration                         : 1h 34mn

Bit rate mode                    : Variable

Bit rate                         : 126 Kbps

Maximum bit rate                 : 219 Kbps

Channel(s)                       : 2 channels

Channel positions                : Front: L R

Sampling rate                    : 44.1 KHz

Compression mode                 : Lossy

Stream size                      : 84.5 MiB (20%)



Para mis rips usa el mejor reproductor 
http://www.gomlab.com/eng/

















Seguirme si les gustaron las minas seguro que si




Nosotras seguimos a RAFADETH porque tu no?

Deep purple Machine head live 1972 Rip 2S
15 Puntos Score: 5/10
Visitas: 641 Favoritos: 0
Ver los usuarios que votaron...
14 Comentarios Deep purple Machine head live 1972 Rip 2S
Muchas Gracias compa...
descargando, excelente
orale super aporte hermano muchas muchas gracias
Increible clasico
@ALVAREZ2 @forcenegrete   gracias manes aprovechen  ya casi estoy por mudarme as?
@renzito666 pues a un proyecto mas personal man mas conforme a mis gustos cuando los subas tus cds av?
Genial aporte!!!
Y pensar que estos tipos regrosos no est?
gracias mi pana  
Cita nolte: Mostrar
muchas  gracias !!  est?
@Rafadeth que malo que te vayas hermano pero pues luego asi son las cosas gracias por todos tus muy buenos aportes
Para dejar un comentario Registrate! o.. eres ya usuario? Accede!