educap
"Por qué algo y no más bien nada?"

1954-La strada-Ganadora Oscar mejor peli extranjer


Sigo con mi serie de Ganadoras de Oscar a mejor peli extranjera...

Opinion personal: magistral... una de mis pelis favoritas, si no la conocen esta recomendada. Las actuaciones estan muy logradas con personajes inolvidables, una mezclka de dosas que surgen, no se si tristes o que... con mi amiga Giulieta Massina, y Antony Quinn













TÍTULO ORIGINAL La strada
AÑO  1954
DURACIÓN Trailers/Vídeos 103 min.
PAÍS
DIRECTOR Federico Fellini
GUIÓN Tullio Pinelli & Federico Fellini
MÚSICA Nino Rota
FOTOGRAFÍA Otello Martelli (B&W)
REPARTO Giulietta Masina, Anthony Quinn, Richard Basehart, Aldo Silvani, Marcella Rovere
PRODUCTORA Ponti de Laurentiis
PREMIOS 1954: Venecia: León de Plata
1956: Oscar: Mejor película de habla no inglesa. 2 nominaciones
GÉNERO Drama | Neorrealismo. Teatro





Sinopsis

Cuando Zampanó, un artista ambulante, enviuda, compra a Gelsomina, la hermana de su mujer, sin que la madre de la chica oponga la menor resistencia. Pese al carácter violento y agresivo de Zampanó, la muchacha se siente atraída por el estilo de vida nómada, siempre en la calle (la strada en italiano), sobre todo cuando su dueño la incluye en el espectáculo. Aunque varios de los pintorescos personajes que va conociendo en su deambular le proponen que se una a ellos, Gelsomina se mantendrá fiel a Zampanó hasta las últimas consecuencias. 






General
Complete name                    : C:UsersEduDownloadsuploads ed1954-La Strada.avi
Format                           : AVI
Format/Info                      : Audio Video Interleave
File size                        : 700 MiB
Duration                         : 1h 43mn
Overall bit rate                 : 948 Kbps
Writing application              : VirtualDubMod 1.5.4.1 (build 2178/release)
Writing library                  : VirtualDubMod build 2178/release

Video
ID                               : 0
Format                           : MPEG-4 Visual
Format profile                   : Advanced [email protected]
Format settings, BVOP            : 1
Format settings, QPel            : No
Format settings, GMC             : No warppoints
Format settings, Matrix          : Custom
Codec ID                         : XVID
Codec ID/Hint                    : XviD
Duration                         : 1h 43mn
Bit rate                         : 875 Kbps
Width                            : 512 pixels
Height                           : 384 pixels
Display aspect ratio             : 4:3
Frame rate                       : 25.000 fps
Color space                      : YUV
Chroma subsampling               : 4:2:0
Bit depth                        : 8 bits
Scan type                        : Progressive
Compression mode                 : Lossy
Bits/(Pixel*Frame)               : 0.178
Stream size                      : 646 MiB (92%)
Writing library                  : XviD 1.1.0 (UTC 2005-11-22)

Audio
ID                               : 1
Format                           : MPEG Audio
Format version                   : Version 1
Format profile                   : Layer 3
Codec ID                         : 55
Codec ID/Hint                    : MP3
Duration                         : 1h 43mn
Bit rate mode                    : Variable
Bit rate                         : 60.4 Kbps
Nominal bit rate                 : 64.0 Kbps
Channel(s)                       : 1 channel
Sampling rate                    : 48.0 KHz
Compression mode                 : Lossy
Stream size                      : 44.6 MiB (6%)
Alignment                        : Aligned on interleaves
Interleave, duration             : 24 ms (0.60 video frame)
Interleave, preload duration     : 565 ms
Writing library                  : LAME3.97 
Encoding settings                : -m m -V 4 -q 2 -lowpass 16.5 --abr 64
Language                         : Spanish





Avi xvid
Español de España! (que buena peli)
700 MB
PutLocker
Uploader educap








De la web


































Enlaces De Descarga


educap







Sampanó, Sampanó, que bestia eres!!!!


1954-La strada-Ganadora Oscar mejor peli extranjer
10 Puntos Score: 10/10
Visitas: 1776 Favoritos: 2
Ver los usuarios que votaron...
13 Comentarios 1954-La strada-Ganadora Oscar mejor peli extranjer
QUE BUENO QUE TODAV?
La descargo   muchas gracias educap  
Me gusta encontrarme con esta clase de post, se agradece la pelicula. +10
Muy buen aporte, excelente pel?
Cita HUGUIN85: Mostrar
amigo algo pasa con el link, he tratado con varias opciones y me da error, podr?
Disculpa pero el link numero 3 me aparece como complemento desactualizado podrias checarlo, Un excelente aporte, mil gracias, Saludos
Cita BETORAGE: Mostrar
Al marcar el pass que solicita escribo y pego educap y no funciona al poder bajar podrias checar cual es el pass que solicita mil gracias, saludos
Cita startrek: Mostrar
fue descargada 310 veces esa es la pass
Los links, no existen ... al menos eso parece, arreglalo por favor .... muchas gracias
por favor resubela estan caidos los enlaces! gracias!!
Para dejar un comentario Registrate! o.. eres ya usuario? Accede!