Oops.. Este post tiene los enlaces eliminados!

Identi revisa las denuncias de los usuarios en busca de enlaces eliminados que no dejan descargar los archivos, este mensaje te informa que este post que estas viendo tiene los enlaces eliminados.

Usa el Buscador

Por favor, te recomendamos que uses el buscador para encontrar más alternativas.

Black Sabbath Heaven and Hell Live 2007

  • Categoría: Reciclaje
  • Publicado hace más de 4 años









Heaven and Hell fue un grupo de heavy metal formado por Tony Iommi y Geezer Butler, integrantes de Black Sabbath, con los antiguos miembros de la misma banda Ronnie James Dio y Vinny Appice. Los cuatro grabaron y fueron de gira juntos como Black Sabbath entre 1980 y 1982, y otra vez entre los años 1991 y 1992. En 2006 se reunieron de nuevo para grabar pistas adicionales al álbum recopilatorio Black Sabbath: The Dio Years, que sería editado en breve. Fue entonces cuando decidieron hacer una gira juntos entre 2007 y 2008, tocando los temas que grabaron cuando estaban en Black Sabbath, aprovechando que el vocalista original y actual de Black Sabbath, Ozzy Osbourne, estaría ocupado girando con la banda que formó en solitario.
A causa de la continuidad de la banda con su formación original (Tony Iommi, Geezer Butler, Ozzy Osbourne y Bill Ward), y que el mismo año 2006 fueron colocados en el Salón de la Fama del Rock and Roll, Tony Iommi y Sharon Osbourne firmaron un acuerdo por el cual el nombre de Black Sabbath no se podía utilizar a no ser que Ozzy fuera uno de los miembros, así se hizo bajo el nombre "Heaven and Hell". El nombre proviene del primer álbum que grabaron los cuatro juntos, tras la entrada de Dio en Sabbath en 1980.
El 27 de octubre de 2007, tanto 'www.black-sabbath.com' como 'www.blabbermouth.net' informaron que los miembros habían decidido seguir trabajando juntos, y grabar y sacar al mercado un nuevo álbum en 2008. Dicha información fue confirmada por el mismo Ronnie James Dio en una entrevista publicada en la web Komodo Rock el 1 de noviembre de 2007. El 16 de mayo de 2010, Ronnie James Dio muere a causa de un cáncer de estómago.

AGRADEZCO EL APORTE AMI AMIGO Y COLEGA EL MANTECAS  POR PASARME ESTE GRAN APORTE comenten disgruten y dejen todos los puntos de hoy



General

Format                           : MPEG-4

Format profile                   : Base Media / Version 2

Codec ID                         : mp42

File size                        : 499 MiB

Duration                         : 1h 55mn

Overall bit rate                 : 605 Kbps


Video

ID                               : 1

Format                           : AVC

Format/Info                      : Advanced Video Codec

Format profile                   : [email protected]

Format settings, CABAC           : No

Format settings, ReFrames        : 1 frame

Format settings, GOP             : M=1, N=60

Codec ID                         : avc1

Codec ID/Info                    : Advanced Video Coding

Duration                         : 1h 55mn

Bit rate mode                    : Variable

Bit rate                         : 507 Kbps

Maximum bit rate                 : 1 735 Kbps

Width                            : 624 pixels

Height                           : 352 pixels

Display aspect ratio             : 16:9

Frame rate mode                  : Constant

Frame rate                       : 25.000 fps

Color space                      : YUV

Chroma subsampling               : 4:2:0

Bit depth                        : 8 bits

Scan type                        : Progressive

Bits/(Pixel*Frame)               : 0.092

Stream size                      : 418 MiB (84%)


Audio

ID                               : 2

Format                           : AAC

Format/Info                      : Advanced Audio Codec

Format profile                   : LC

Codec ID                         : 40

Duration                         : 1h 55mn

Bit rate mode                    : Variable

Bit rate                         : 96.0 Kbps

Maximum bit rate                 : 152 Kbps

Channel(s)                       : 2 channels

Channel positions                : Front: L R

Sampling rate                    : 44.1 KHz

Compression mode                 : Lossy

Stream size                      : 79.1 MiB (16%)



Para mis rips usa el mejor reproductor 
http://www.gomlab.com/eng/























Nosotras seguimos a RAFADETH  porque tu no?



Black Sabbath Heaven and Hell Live 2007
0 Puntos Score: 0/10
Visitas: 628 Favoritos: 0
4 Comentarios Black Sabbath Heaven and Hell Live 2007
Gracias Rafadeth
filetazooooo concierto ..... grande dio

 
lo tendrias en dvd full?
Lo tenes en Brrip ?
Para dejar un comentario Registrate! o.. eres ya usuario? Accede!