Looper 2012 HDRiP [EN][Sub]

Looper 2012 HDRi

Para empezar descarguen una muestra del video para verificar la calidad:

Aquí









Título: Looper
Título original: Looper
País: USA
Estreno en USA: 28/09/2012
Estreno en España: 19/10/2012
Productora: TriStar Pictures (Sony)
Director: Rian Johnson
Guión: Rian Johnson
Reparto: Bruce Willis, Joseph Gordon-Levitt, Emily Blunt, Piper Perabo, Jeff Daniels, Paul Dano, Garret Dillahunt, Tracie Thoms, Noah Segan, Sam Medina, David Jensen, Sylvia Jefferies, Qing Xu, James Hébert, Emily D. Haley
Calificación: No recomendada para menores de 16 años

Sinopsis:

En 2072 los asesinatos están terminantemente prohibidos y los objetivos son enviados a través de una máquina del tiempo al pasado, al año 2042, donde existe una red de sicarios, conocidos como Loopers, que se encargan de acabar con ellos y deshacerse rápidamente de los cuerpos. Uno de los mejores Loopers es Joe (Joseph Gordon-Levitt) para quien esta profesión sólo supone un trabajo muy bien pagado. Hasta que recibe un nuevo objetivo desde el futuro: él mismo (Bruce Willis).



Video
ID : 0
Format : MPEG-4 Visual
Format profile : Advanced [email protected]
Format settings, BVOP : 2
Format settings, QPel : No
Format settings, GMC : No warppoints
Format settings, Matrix : Default (MPEG)
Muxing mode : Packed bitstream
Codec ID : XVID
Codec ID/Hint : XviD
Duration : 1h 58mn
Bit rate : 2 163 Kbps
Width : 720 pixels
Height : 256 pixels
Display aspect ratio : 2.813
Frame rate : 23.976 fps
Color space : YUV
Chroma subsampling : 4:2:0
Bit depth : 8 bits
Scan type : Progressive
Compression mode : Lossy
Bits/(Pixel*Frame) : 0.489
Stream size : 1.79 GiB (94%)
Writing library : XviD 64

Audio
ID : 1
Format : AC-3
Format/Info : Audio Coding 3
Mode extension : CM (complete main)
Codec ID : 2000
Duration : 1h 58mn
Bit rate mode : Constant
Bit rate : 128 Kbps
Channel(s) : 2 channels
Channel positions : Front: L R
Sampling rate : 48.0 KHz
Bit depth : 16 bits
Compression mode : Lossy
Stream size : 109 MiB (6%)
Alignment : Aligned on interleaves
Interleave, duration : 42 ms (1.00 video frame)
Interleave, preload duration : 512 ms

Idioma: Inglés | Subtitulos:  Español (al final del post |  Tamaño: 1.9 GB |






Enlaces De Descarga



Subtitulos
Looper 2012 HDRiP [EN][Sub]
0 Puntos Score: 0/10
Visitas: 3237 Favoritos: 5
20 Comentarios Looper 2012 HDRiP [EN][Sub]
hola que tal, amigo esta es version diferente a la que anda circulando con subtitulos coreanos???
Muchas Gracias por el aporte...
Se te agradece el esfuerzo y la dedicacion
@agamboat poruqe no puedo descargar de gamefront ? sera que todavia no los subes completos o que ?
@payonel sabes por lo que vi por las caps es la misma nada mas que difuminaron lo subtitulos...
gracias por compartir   .....y parece que el servidor gamefront esta malo he tratado de descargar otros archivos del servidor y me sale error  
Cita jorobado28: Mostrar
@payonel misma version con un retoque en los subs para "disimularlos"
@jorobado28 dale un rato y podr?
@payonel @ccv125421 gente ahi subi un sample del video...
gracias a migo de todos modos ya vi con los subs incrustados con el vlc le cambie el color a la fuente y ya se notabn mas los subtitulos...
Que gram aporte   pero me eperare un poco mas    

muy bueno amigo espero y tenga esa calidad por que los que andan circulando por ahi le croopean la parte donde estan los subs en japones y eso es muy feo por que ya no se ve igual a la original alrato comento que tal  
Suena interesante, pero no lo suficiente para bajar una versi?
@elcondef jajajajaj buen meme

Bueno, tambien esperar?
Enlace 1 en gamefront y  sockshare caidos, te agradeceria resubir, gracias por el aporte
Arreglalo el link 1 de gamefront . gracias
Bueno el aporte pero con muchas fallas, sera seguir esperando!
parece  
ke el purloker arranca enseguida los demas estas malos gracias
Gracias Bajando con Mipony, con los server de putloker
Cita payonel: Mostrar


por las capturas es la misma version con los subtitulos coreanos esfumados, para mi gusto es peor asi. pero vale el esfuerzo
gracias ya descarge esta bn  
Para dejar un comentario Registrate! o.. eres ya usuario? Accede!