Oops.. Este post tiene los enlaces eliminados!

Identi revisa las denuncias de los usuarios en busca de enlaces eliminados que no dejan descargar los archivos, este mensaje te informa que este post que estas viendo tiene los enlaces eliminados.

Usa el Buscador

Por favor, te recomendamos que uses el buscador para encontrar más alternativas.

Obituary Frozen alive 2006 2S

  • Categoría: Reciclaje
  • Publicado hace más de 4 años







Hola buenos días petardos kulebros espero sea de su agrado este ripito del Obituary mi banda favorita de death metal  de muchos igual creo disfruten comenten y vacíen todos sus puntos



General

Format                           : MPEG-4

Format profile                   : Base Media / Version 2

Codec ID                         : mp42

File size                        : 387 MiB

Duration                         : 1h 18mn

Overall bit rate                 : 692 Kbps



Video

ID                               : 1

Format                           : AVC

Format/Info                      : Advanced Video Codec

Format profile                   : [email protected]

Format settings, CABAC           : No

Format settings, ReFrames        : 1 frame

Codec ID                         : avc1

Codec ID/Info                    : Advanced Video Coding

Duration                         : 1h 18mn

Bit rate mode                    : Variable

Bit rate                         : 593 Kbps

Maximum bit rate                 : 1 723 Kbps

Width                            : 480 pixels

Height                           : 272 pixels

Display aspect ratio             : 16:9

Frame rate mode                  : Constant

Frame rate                       : 29.970 fps

Color space                      : YUV

Chroma subsampling               : 4:2:0

Bit depth                        : 8 bits

Scan type                        : Progressive

Bits/(Pixel*Frame)               : 0.152

Stream size                      : 332 MiB (86%)


Audio

ID                               : 2

Format                           : AAC

Format/Info                      : Advanced Audio Codec

Format profile                   : LC

Codec ID                         : 40

Duration                         : 1h 18mn

Bit rate mode                    : Variable

Bit rate                         : 96.0 Kbps

Maximum bit rate                 : 116 Kbps

Channel(s)                       : 2 channels

Channel positions                : Front: L R

Sampling rate                    : 44.1 KHz

Compression mode                 : Lossy

Stream size                      : 53.7 MiB (14%)



Para mis rips usa el mejor reproductor 
http://www.gomlab.com/eng/



http://www.2shared.com/file/lpb9Zazm/ObiFA2006part1.html
http://www.2shared.com/file/4U-Hhmsb/ObiFA2006part2.html
http://www.2shared.com/file/gQJrujUu/ObiFA2006part3.html
http://www.2shared.com/file/IDqCL0Wi/ObiFA2006part4.html



Seguirme si les gustaron las minas seguro que si





Nosotras seguimos a RAFADETH porque tu no?

Obituary Frozen alive 2006 2S
20 Puntos Score: 6.7/10
Visitas: 597 Favoritos: 1
Ver los usuarios que votaron...
1 Comentarios Obituary Frozen alive 2006 2S
este si po ctm, aportaso wn.
Para dejar un comentario Registrate! o.. eres ya usuario? Accede!