Oops.. Este post tiene los enlaces eliminados!

Identi revisa las denuncias de los usuarios en busca de enlaces eliminados que no dejan descargar los archivos, este mensaje te informa que este post que estas viendo tiene los enlaces eliminados.

Usa el Buscador

Por favor, te recomendamos que uses el buscador para encontrar más alternativas.

Sodom Mortal Way of live 2S

  • Categoría: Reciclaje
  • Publicado hace más de 4 años








HOLA Y ADIÓS NO TENGO GANAS DE COMENTAR AHÍ DESCARGUEN COMENTEN Y SOBRE TODO DEJEN PUNTOS PETARDOS 


Mortal Way of Live


1. Outbreak Of Evil 
2. Iron Fist (Motörhead cover) 
3. Nuclear Winter 
4. Electrocution 
5. Obsessed By Cruelty 
6. Blasphemer 
7. Christ Passion
8. Sodomy And Lust
9. Bombenhagel 


Tom Angelripper Vocals, Bass
Frank Blackfire Guitars 
Chris Witchhunter (R.I.P. 2008) Drums


General


Format                           : MPEG-4
Codec ID                         : M4V 
File size                        : 427 MiB
Duration                         : 54mn 33s
Overall bit rate                 : 1 094 Kbps
widt                             : (Binary)
heig                             : (Binary)

Video
ID                               : 1
Format                           : AVC
Format/Info                      : Advanced Video Codec
Format profile                   : [email protected]
Format settings, CABAC           : No
Format settings, ReFrames        : 1 frame
Format settings, GOP             : M=1, N=33
Codec ID                         : avc1
Codec ID/Info                    : Advanced Video Coding
Duration                         : 54mn 33s
Bit rate mode                    : Constant
Bit rate                         : 900 Kbps
Width                            : 720 pixels
Height                           : 480 pixels
Display aspect ratio             : 3:2
Frame rate mode                  : Constant
Frame rate                       : 25.000 fps
Standard                         : PAL
Color space                      : YUV
Chroma subsampling               : 4:2:0
Bit depth                        : 8 bits
Scan type                        : Progressive
Bits/(Pixel*Frame)               : 0.104
Stream size                      : 351 MiB (82%)

Audio
ID                               : 2
Format                           : AAC
Format/Info                      : Advanced Audio Codec
Format profile                   : LC
Codec ID                         : 40
Duration                         : 54mn 33s
Bit rate mode                    : Constant
Bit rate                         : 192 Kbps
Channel(s)                       : 2 channels
Channel positions                : Front: L R
Sampling rate                    : 48.0 KHz
Compression mode                 : Lossy
Stream size                      : 74.9 MiB (18%)








Para mis rips usa el mejor reproductor 
http://www.gomlab.com/eng/












seguirme si les gustaron las minas Seguro Que si 




y ademas si odias el crap en Identi.


Metal en la sangre

Sodom Mortal Way of live 2S
27 Puntos Score: 6.8/10
Visitas: 984 Favoritos: 1
Ver los usuarios que votaron...
5 Comentarios Sodom Mortal Way of live 2S
pulento compare
SODOOOOOOOOOOOOOOOOOOOOM!!!!!!!!!!!!!!!!!!!!!!!!!!!!!!!!!
 
Groso aporteeeeeeeeeeeee!!!  

Van puntelis. Gracias por compartir!!!  
gracias por tus aportes
vale compadre
te pasaste otra vez
gracias
Para dejar un comentario Registrate! o.. eres ya usuario? Accede!