Oops.. Este post tiene los enlaces eliminados!

Identi revisa las denuncias de los usuarios en busca de enlaces eliminados que no dejan descargar los archivos, este mensaje te informa que este post que estas viendo tiene los enlaces eliminados.

Usa el Buscador

Por favor, te recomendamos que uses el buscador para encontrar más alternativas.

Christine John Carpenter Stephen King 1983

  • Categoría: Reciclaje
  • Publicado hace más de 4 años

Christine es una novela del escritor estadounidense Stephen King, publicada en 1983. Cuenta la historia de un automóvil aparentemente poseído por fuerzas sobrenaturales.

En 1983 se realizó la película sobre Christine.


  Sinopsis            

Christine no es un auto normal. Dentro de su chasis vive un ser detestable. Un Plymourth Fury 1958 rojo con blanco, que lo único que trae instalado es una presencia diabólica con la capacidad de destruir todo a su paso. Seduce a un joven de 17 años, Arnie Cunningham quien se vuelve loco por su gran figura y acabado cromado exigiendole su total atención. Pero cuando personas externas tratan de inferir en su relación, ellos se convierten en sus víctimas.


El protagonista de Christine es Arnold Cunningham, apodado Arnie; un joven muy tímido y estudioso que participa en el club de ajedrez de su universidad. Pero es objeto de las burlas de toda la facultad a causa de su acné y sus grandes gafas. El mejor amigo de Arnie es Denis, mucho más popular que él, ya que juega en el equipo de futbol universitario.


Una tarde, mientras viajan en el coche de Denis, Arnie ve un viejo coche rojo muy descuidado, modelo Plymouth Fury del año 1958, con un rótulo de "Se Vende". A pesar del mal estado del coche, cuyo vendedor lo llama "Christine", Arnie se siente extrañamente atraído por él, por lo que lo compra. Sin embargo, Arnie no puede tener el coche en su casa, ya que sus padres se han enfadado con él por comprar el coche sin consultarles, de modo que tiene que dejarlo en un garaje.


Con el tiempo, Denis comienza a notar ciertos cambios en su amigo: el acné de Arnie desaparece, deja de usar gafas y de jugar al ajedrez. Arnie está más seguro de sí mismo, pero también está profundamente obsesionado con el coche que compró, solo habla de él, y trabaja duramente hasta que logra restaurarlo. Al mismo tiempo, Arnie comeinza a salir con Leigh, la alumna más bonita de la universidad.


Una noche, los abusivos del colegio entran al garaje y destruyen a Christine. Después empiezan a ver varias muertes, con la peculiaridad de que casi todas esas muertes fueron a personas que alguna vez molestaron a Arnie o a Christine. Denis descubre que Christine tiene vida. Denis se lo cuenta a Leigh quien confiesa que ella también lo sospecha. Luego Denis y Leigh se enfrentan finalmente con Christine, montados en una maquina de construcción. Mientras destruyen a Christine, a muchos kilómetros están Arnie y su madre muriendo por un enfrentamiento que tuvieron con Christine anteriormente. 


Dennis Guilder, protagonista.

Arnold "Arnie" Cunningham y Leigh Cabot, Amigos de Dennis coprotagonistas.

Roland D. Lebay, Veterano de Guerra (le vende el coche a Arnie y aunque muere, su "espíritu" sigue morando en Christine), secundario.

Michael y Regina Cunningham, padres de Arnie, secundarios.

[editar]Adaptación cinematográfica


En 1983 se realizó la película sobre Christine. Fue dirigida por John Carpenter, y protagonizada por Keith Gordon, John Stockwell, Alexandra Paul, y Harry Dean Stanton.

Se comenzó a filmar un remake a finales de 2007.












Formato : Avi 718 mb 
Idioma: Español Latino
Calidad: Excelente

General
Format                           : AVI
Format/Info                      : Audio Video Interleave
File size                        : 719 MiB
Duration                         : 1h 49mn
Overall bit rate                 : 913 Kbps
Writing application              : MEncoder SVN-r30881(20100311-gcc4.3.3)
Writing library                  : MPlayer

Video
ID                               : 0
Format                           : AVC
Format/Info                      : Advanced Video Codec
Format profile                   : [email protected]
Format settings, CABAC           : No
Format settings, ReFrames        : 1 frame
Codec ID                         : avc1
Duration                         : 1h 49mn
Bit rate                         : 768 Kbps
Width                            : 720 pixels
Height                           : 480 pixels
Display aspect ratio             : 16:9
Frame rate                       : 24.000 fps
Standard                         : NTSC
Color space                      : YUV
Chroma subsampling               : 4:2:0
Bit depth                        : 8 bits
Scan type                        : Progressive
Bits/(Pixel*Frame)               : 0.093
Stream size                      : 608 MiB (85%)
Writing library                  : x264 core 80 r1378+57 6f6b50a

Audio
ID                               : 1
Format                           : 706D
Codec ID                         : 706D
Duration                         : 1h 49mn
Bit rate                         : 128 Kbps
Channel(s)                       : 2 channels
Sampling rate                    : 44.1 KHz
Stream size                      : 101 MiB (14%)
Interleave, duration             : 23 ms (0.56 video frame)
Interleave, preload duration     : 797 ms

 Dedicado especialmente por haberme borrado el post anterior igual a este @sawadypap






 






Seguirme si les gustaron las minas seguro que si




Nosotras seguimos a RAFADETH  porque tu no?


Christine John Carpenter Stephen King 1983
11 Puntos Score: 3.7/10
Visitas: 1179 Favoritos: 3
Ver los usuarios que votaron...
11 Comentarios Christine John Carpenter Stephen King 1983
gran aporte men la vi hace mucho y creo q es la q esta buscando sollo quiero saber q audio tiene gracias men
Muchas gracias! me encanta la pel?
exxxxecelleeeenteeeeeeeeeeeee grande
Ya la tengo pero buen aporte
Buen post loco, la bajare por que se ve buena mas tarde van puntos por que no tengo ahora
porque te borraron y quien???  
k onda, no tendras la movie Rose Red, en dvd full
No dije nada (era el reproductor) Si supiera c?
Para dejar un comentario Registrate! o.. eres ya usuario? Accede!