Oops.. Este post tiene los enlaces eliminados!

Identi revisa las denuncias de los usuarios en busca de enlaces eliminados que no dejan descargar los archivos, este mensaje te informa que este post que estas viendo tiene los enlaces eliminados.

Usa el Buscador

Por favor, te recomendamos que uses el buscador para encontrar más alternativas.

Megadeth Behind the Music Rip Subtitulado 2S

  • Categoría: Reciclaje
  • Publicado hace más de 4 años










Bueno mis petardos aporto este rip mio  mas liviano con subtitulos grandes creados por mi disfruten comenten y dejen todos sus puntos

 

General

Format                                   : MPEG-4

Format profile                           : Base Media

Codec ID                                 : isom

File size                                : 527 MiB

Duration                                 : 1h 16mn

Overall bit rate mode                    : Variable

Overall bit rate                         : 962 Kbps


Video

ID                                       : 1

Format                                   : AVC

Format/Info                              : Advanced Video Codec

Format profile                           : [email protected]

Format settings, CABAC                   : No

Format settings, ReFrames                : 1 frame

Codec ID                                 : avc1

Codec ID/Info                            : Advanced Video Coding

Duration                                 : 1h 16mn

Bit rate                                 : 768 Kbps

Maximum bit rate                         : 5 409 Kbps

Width                                    : 720 pixels

Height                                   : 540 pixels

Display aspect ratio                     : 4:3

Frame rate mode                          : Constant

Frame rate                               : 24.000 fps

Color space                              : YUV

Chroma subsampling                       : 4:2:0

Bit depth                                : 8 bits

Scan type                                : Progressive

Bits/(Pixel*Frame)                       : 0.082

Stream size                              : 422 MiB (80%)


Audio

ID                                       : 2

Format                                   : AAC

Format/Info                              : Advanced Audio Codec

Format profile                           : LC

Codec ID                                 : 40

Duration                                 : 1h 16mn

Bit rate mode                            : Variable

Bit rate                                 : 192 Kbps

Maximum bit rate                         : 282 Kbps

Channel(s)                               : 2 channels

Channel positions                        : Front: L R

Sampling rate                            : 44.1 KHz

Compression mode                         : Lossy

Stream size                              : 104 MiB (20%)





Para mis rips usa el mejor reproductor 
http://www.gomlab.com/eng/










seguirme si les gustaron las minas Seguro Que si



Nosotras seguimos a RAFADETH  porque tu no?


Megadeth Behind the Music Rip Subtitulado 2S
13 Puntos Score: 3.3/10
Visitas: 599 Favoritos: 0
Ver los usuarios que votaron...
5 Comentarios Megadeth Behind the Music Rip Subtitulado 2S
Que groso post!!!


Muy buen material  
gracias por el aporte
por las chichis pero por hoy nomas prefiero a megadeth
Para dejar un comentario Registrate! o.. eres ya usuario? Accede!