Oops.. Este post tiene los enlaces eliminados!

Identi revisa las denuncias de los usuarios en busca de enlaces eliminados que no dejan descargar los archivos, este mensaje te informa que este post que estas viendo tiene los enlaces eliminados.

Usa el Buscador

Por favor, te recomendamos que uses el buscador para encontrar más alternativas.

Helloween Live in Köln 1992

  • Categoría: Reciclaje
  • Publicado hace más de 4 años


Hola mis estimados petardos kulebros dejo como ya saben los que me conocen y lo que no mi aporte diario espero les agrade y si no me da igual dejo este rip de Helloween del 92 ya salido hansen y entrando grapow bueno los que saben me entienden disfruten comenten y vacíen todos sus puntos o siganme hasta luego 






1. Kids of the Century 
2. Back on the Streets 
3. Eagle Fly Free 
4. A Little Time 
5. Mankind 
6. I'm Doin' Fine Crazy Man 
7. Dr. Stein 
8. Pink Bubbles Go Ape 
9. Your Turn 
10. A Tale That Wasn't Right 
11. Future World 
12. Number One



General


Format                                   : MPEG-4
Format profile                           : Base Media
Codec ID                                 : isom
File size                                : 403 MiB
Duration                                 : 51mn 27s
Overall bit rate mode                    : Constant
Overall bit rate                         : 1 094 Kbps

Video
ID                                       : 1
Format                                   : AVC
Format/Info                              : Advanced Video Codec
Format profile                           : [email protected]
Format settings, CABAC                   : No
Format settings, ReFrames                : 1 frame
Format settings, GOP                     : M=1, N=33
Codec ID                                 : avc1
Codec ID/Info                            : Advanced Video Coding
Duration                                 : 51mn 27s
Source duration                          : 51mn 27s
Bit rate mode                            : Constant
Bit rate                                 : 850 Kbps
Nominal bit rate                         : 900 Kbps
Width                                    : 384 pixels
Height                                   : 288 pixels
Display aspect ratio                     : 4:3
Frame rate mode                          : Constant
Frame rate                               : 25.000 fps
Standard                                 : PAL
Color space                              : YUV
Chroma subsampling                       : 4:2:0
Bit depth                                : 8 bits
Scan type                                : Progressive
Bits/(Pixel*Frame)                       : 0.307
Stream size                              : 313 MiB (78%)
Source stream size                       : 331 MiB (82%)

Audio
ID                                       : 2
Format                                   : AAC
Format/Info                              : Advanced Audio Codec
Format profile                           : LC
Codec ID                                 : 40
Duration                                 : 51mn 27s
Bit rate mode                            : Constant
Bit rate                                 : 192 Kbps
Channel(s)                               : 2 channels
Channel positions                        : Front: L R
Sampling rate                            : 44.1 KHz
Compression mode                         : Lossy
Stream size                              : 70.7 MiB (18%)







Para mis rips usa el mejor reproductor 



















seguirme si les gustaron las minas Seguro Que si





Nosotras seguimos a RAFADETH  porque tu no?







Helloween Live in Köln 1992
8 Puntos Score: 4/10
Visitas: 585 Favoritos: 0
Ver los usuarios que votaron...
4 Comentarios Helloween Live in Köln 1992
Gracias por este gran concierto  
como siempre genial!!!! y cuando vacie mis rigidos o compre uno nuevo ahi lo descargare, pronto hablamos y saludos
Que buen concierto no descargo por que ya lo tengo. :3
Hermano tendras algun concierto o discos de una Banda que se llama dungeon de australia y si  los tienes los. podrias subir porfa te lo agradeceria mucho.  
Para dejar un comentario Registrate! o.. eres ya usuario? Accede!