Oops.. Este post tiene los enlaces eliminados!

Identi revisa las denuncias de los usuarios en busca de enlaces eliminados que no dejan descargar los archivos, este mensaje te informa que este post que estas viendo tiene los enlaces eliminados.

Usa el Buscador

Por favor, te recomendamos que uses el buscador para encontrar más alternativas.

Stratovarius Live Finland 98 Jyrki 2S

  • Categoría: Reciclaje
  • Publicado hace más de 4 años







Me encuentro indispuesto así que blablabla blabla como siempre kulebros aquí el aporte diario Stratovarius bueno no pretendo aburrir disfruten comenten y dejen puntos Agradecimiento al Mantecas por facilitarme este material  


MP4 334 MB BUENA CALIDAD CONSIDERANDO QUE ES UN RIP BOOTLEG




General

Format                                   : MPEG-4

Format profile                           : Base Media

Codec ID                                 : isom

File size                                : 334 MiB

Duration                                 : 40mn 55s

Overall bit rate mode                    : Constant

Overall bit rate                         : 1 142 Kbps


Video

ID                                       : 1

Format                                   : AVC

Format/Info                              : Advanced Video Codec

Format profile                           : [email protected]

Format settings, CABAC                   : No

Format settings, ReFrames                : 1 frame

Format settings, GOP                     : M=1, N=33

Codec ID                                 : avc1

Codec ID/Info                            : Advanced Video Coding

Duration                                 : 40mn 55s

Source duration                          : 40mn 55s

Bit rate mode                            : Constant

Bit rate                                 : 896 Kbps

Nominal bit rate                         : 950 Kbps

Width                                    : 384 pixels

Height                                   : 288 pixels

Display aspect ratio                     : 4:3

Frame rate mode                          : Constant

Frame rate                               : 25.000 fps

Standard                                 : PAL

Color space                              : YUV

Chroma subsampling                       : 4:2:0

Bit depth                                : 8 bits

Scan type                                : Progressive

Bits/(Pixel*Frame)                       : 0.324

Stream size                              : 262 MiB (78%)

Source stream size                       : 278 MiB (83%)

Audio

ID                                       : 2

Format                                   : AAC

Format/Info                              : Advanced Audio Codec

Format profile                           : LC

Codec ID                                 : 40

Duration                                 : 40mn 55s

Bit rate mode                            : Constant

Bit rate                                 : 192 Kbps

Channel(s)                               : 2 channels

Channel positions                        : Front: L R

Sampling rate                            : 44.1 KHz

Compression mode                         : Lossy

Stream size                              : 55.6 MiB (17%)





Para mis rips usa el mejor reproductor 








seguirme si les gustaron las minas Seguro Que si




Nosotras seguimos a RAFADETH  porque tu no?



Stratovarius Live Finland 98 Jyrki 2S
20 Puntos Score: 6.7/10
Visitas: 648 Favoritos: 3
Ver los usuarios que votaron...
8 Comentarios Stratovarius Live Finland 98 Jyrki 2S
Gracias por el aporte   oye me pregunto porque hay una bandera de Chile en el eccenario???
@ALVAREZ2  cual estoy medio cegato
@Rafadeth  aya la vi lo desconozco esa portada no es original es de alg?
@Rafadeth   Estos son los Aportes del Rafa que yo conoc?
muy buen aporte awante strato no tengo puntos pero si te doy un Gracias!
grasias bro!!  
Gracias men, que joya de Strato, no lo habia viso
bajando gracias (:
Para dejar un comentario Registrate! o.. eres ya usuario? Accede!