Oops.. Este post tiene los enlaces eliminados!

Identi revisa las denuncias de los usuarios en busca de enlaces eliminados que no dejan descargar los archivos, este mensaje te informa que este post que estas viendo tiene los enlaces eliminados.

Usa el Buscador

Por favor, te recomendamos que uses el buscador para encontrar más alternativas.

Ovnis accidentes y Secuestros en tierra 2S

  • Categoría: Reciclaje
  • Publicado hace más de 4 años






A través de imágenes inéditas, entrevistas, reacciones y comentarios de especialistas en el fenómeno OVNI, los espectadores conocerán los casos más misteriosos.

A partir del relato del único testigo vivo, la chilena Juana Andaur, se investigó la caída de un OVNI en una ciudad rural al Sur de Chile, a principios de siglo.



Buenas tardes hoy aporte este mini documental de extraterrestres  ovnis y esas cosas que seguramente  no los dejaran dormir comenten dejen puntos y estén atentos al cielo 



General


Format                           : MPEG-4
Format profile                   : Base Media / Version 2
Codec ID                         : mp42
File size                        : 316  MiB
Duration                         : 49mn 2s
Overall bit rate                 : 900 Kbps
Writing application              : mp4creator 1.6.1d

Video
ID                               : 1
Format                           : AVC
Format/Info                      : Advanced Video Codec
Format profile                   :[email protected]
Format settings, CABAC           : No
Format settings, ReFrames        : 1 frame
Codec ID                         : avc1
Codec ID/Info                    : Advanced Video Coding
Duration                         : 49mn 2s
Bit rate mode                    : Variable
Bit rate                         : 773 Kbps
Width                            : 720 pixels
Height                           : 480 pixels
Display aspect ratio             : 4:3
Frame rate mode                  : Constant
Frame rate                       : 24.000 fps
Standard                         : NTSC
Color space                      : YUV
Chroma subsampling               : 4:2:0
Bit depth                        : 8 bits
Scan type                        : Progressive
Bits/(Pixel*Frame)               : 0.093
Stream size                      : 271 MiB (80%)

Audio
ID                               : 2
Format                           : AAC
Format/Info                      : Advanced Audio Codec
Format profile                   : LC
Codec ID                         : 40
Duration                         : 49mn 1s
Bit rate mode                    : Variable
Bit rate                         : 192 Kbps
Maximum bit rate                 : 242 Kbps
Channel(s)                       : 2 channels
Channel positions                : Front: L R
Sampling rate                    : 44.1 KHz
Compression mode                 : Lossy
Stream size                      : 66.5 MiB (20%)




Para mis rips usa el mejor reproductor 
http://www.gomlab.com/eng/















seguirme si les gustaron las minas Seguro Que si




Nosotras seguimos a RAFADETH  porque tu no?



Ovnis accidentes y Secuestros en tierra 2S
6 Puntos Score: 3/10
Visitas: 1894 Favoritos: 4
Ver los usuarios que votaron...
15 Comentarios Ovnis accidentes y Secuestros en tierra 2S
Ruegas mucho que te sigan, ?
sin sentido tu comentario la [email protected] y aqui los sectarios son otros


Esta foto la tome en el patio de mi casa
@shaka33  que falsa tu imagen mejorala  
Excelente aporte, muchas gracias      
Cita Rafadeth: Mostrar

Todas las fotos de ovnis la toman con una mancha de chocolate en la lente  

Gracias, muy buen aporte
muy bueno    a favs .. me gusto la frase que publicas siempre @Rafadeth :  ."di no al crap..no alimentes a los sucios craperos...! "
Ya me pongo a seguirte hasta el fin!
EL ULTIMO LINK ESTA FUERA DE FUNCIIIOOOOONNNN ARREGLALO PLIS
otro gran aporte lo revisare y hare comentarios, saludos
@bakkan OVNIS_ACC_Y_SEC-2.part4.rar 843.9 KB/s - 1,850 KB de 11.1 MB, Faltan 1 minutos
http://dc414.2shared.com/download/p8kP3uun/OVNIS_ACC_Y_SEC-2part4.rar?tsid=20121031-184624-d022216f  
esta bien man
parece que era el jdownloader... super bueno el reportaje...gracias  
Amigo Rafadeth podrias decirme si podes conseguir la serie Nash Bridges (TV Series 1996?
Para dejar un comentario Registrate! o.. eres ya usuario? Accede!