Oops.. Este post tiene los enlaces eliminados!

Identi revisa las denuncias de los usuarios en busca de enlaces eliminados que no dejan descargar los archivos, este mensaje te informa que este post que estas viendo tiene los enlaces eliminados.

Usa el Buscador

Por favor, te recomendamos que uses el buscador para encontrar más alternativas.

Dreamland Con Escenas No Autorizadas del Area 51

  • Categoría: Reciclaje
  • Publicado hace más de 4 años







El Área 51 es una base militar y un destacamento remoto de la Base de la Fuerza Aérea de Edwards. Las instalaciones se encuentran ubicadas en una región sureña de Nevada, al oeste de Estados Unidos y a unos 133 km al noroeste de la ciudad de Las Vegas. Situada en el centro, a lo largo de las tierras baldías de Groom Lake, es un vasto aeródromo militar. El objetivo principal de la base es indeterminado, sin embargo, en base a evidencias históricas, parece ser que se está llevando a cabo investigación y desarrollo de sistemas de armas vanguardistas y pruebas con aeronaves experimentales.


Magnifico documental que muestra los secretos mejor guardados sobre el Area 51  y todo aquello que se aloja en estas misteriosas instalaciones

 

No olviden comentar y dejar todos sus puntos de hoy

100% Ripeado por mi si lo dudan disfruten  y no olviden estar atentos al cielo  




General

Format                                   : MPEG-4

Format profile                           : Base Media / Version 2

Codec ID                                 : mp42

File size                                : 612 MiB

Duration                                 : 1h 36mn

Overall bit rate mode                    : Variable

Overall bit rate                         : 886 Kbps

Writing application                      : mp4creator 1.6.1d


Video

ID                                       : 1

Format                                   : AVC

Format/Info                              : Advanced Video Codec

Format profile                           : [email protected]

Format settings, CABAC                   : No

Format settings, ReFrames                : 1 frame

Codec ID                                 : avc1

Codec ID/Info                            : Advanced Video Coding

Duration                                 : 1h 36mn

Bit rate mode                            : Variable

Bit rate                                 : 758 Kbps

Width                                    : 720 pixels

Height                                   : 480 pixels

Display aspect ratio                     : 4:3

Frame rate mode                          : Constant

Frame rate                               : 24.000 fps

Standard                                 : NTSC

Color space                              : YUV

Chroma subsampling                       : 4:2:0

Bit depth                                : 8 bits

Scan type                                : Progressive

Bits/(Pixel*Frame)                       : 0.091

Stream size                              : 524 MiB (86%)



Audio

ID                                       : 2

Format                                   : AAC

Format/Info                              : Advanced Audio Codec

Format profile                           : LC

Codec ID                                 : 40

Duration                                 : 1h 36mn

Source duration                          : 1h 36mn

Bit rate mode                            : Variable

Bit rate                                 : 126 Kbps

Maximum bit rate                         : 242 Kbps

Channel(s)                               : 2 channels

Channel positions                        : Front: L R

Sampling rate                            : 44.1 KHz

Compression mode                         : Lossy

Stream size                              : 86.7 MiB (14%)

Source stream size                       : 86.8 MiB (14%)



:baba:



Nosotras seguimos a RAFADETH porque tu no?



Dreamland Con Escenas No Autorizadas del Area 51
23 Puntos Score: 4.6/10
Visitas: 2178 Favoritos: 9
Ver los usuarios que votaron...
25 Comentarios Dreamland Con Escenas No Autorizadas del Area 51
Me lo llevo a ver que tal,muchas gracias
@shaka33  no se si tomarlo bien o mal de ti pero gracias por pasar
Buen aporte man, te dejo los ultimos 5 que me quedan
Cita Rafadeth: Mostrar

Esta muy bien el post El Area 51 es un tema muy interesante
@shaka33 bajalo entonces y disfruta y deja points jejeje
@kisher09 gracias por [email protected]  
Cita Rafadeth: Mostrar

Te dejo puntos suspensivos ...................  
@shaka33 te doy las gracias en mi imaginaci?
Esta en espa?
@MrCh0  100% latino seria una groser?
EXCELENTE......
@shaka33  me alagas gracias +1 oye man cuales son los 6 santos dorados mas fuertes y los 6 debiles creo eres un experto
Cita Rafadeth: Mostrar

Lo unico que es seguro que shaka33 le gana a Saga el DETRUKTOR
Me interesan este tipo de cosas
bajando  
MMM se ve bueno el documental pero no se si descargar de este server alguin sabe si es bueno
buen aporte  
TENGO PROBLEMAS AL DESCARGAR "LIMITE DE SESION ALCANZADO "  Y HASTA AHI SOLO 2 LINKS SE DESCARGARON, LOS DEMAS SE ESTAN INICIANDO Y LLEVA COMO 20 MINUTOS Y NADA .....SOLO LEYENDA "EN ESPERA DE IP NUEVA""
Realmente muy buen servidor de descarga...me hace recordar los viejos tiempos de Mediafire...antes de la hecatombe de la caida de Megaupload....Felicitaciones Rafadeth---
gracias, buen aporte
Se ve interesante, gracias  
2shared ahora tambien tiene limites para descargar    ..... solo 6 .... gran material igualmente
Para dejar un comentario Registrate! o.. eres ya usuario? Accede!