Oops.. Este post tiene los enlaces eliminados!

Identi revisa las denuncias de los usuarios en busca de enlaces eliminados que no dejan descargar los archivos, este mensaje te informa que este post que estas viendo tiene los enlaces eliminados.

Usa el Buscador

Por favor, te recomendamos que uses el buscador para encontrar más alternativas.

Yngwie Malmsteen Live in tokio 85 2S

  • Categoría: Reciclaje
  • Publicado hace más de 4 años










Bueno petardos Kulebros desagradecidos estoy de buenas y aporto esta joyita del maestro Malmsteen disfruten comente y vacíen todos sus puntos de hoy Agradecimiento al MANTECAS por facilitarme este aporte



General

Format                           : MPEG-4

Format profile                   : Base Media / Version 2

Codec ID                         : mp42

File size                        : 201 MiB

Duration                         : 55mn 17s

Overall bit rate                 : 509 Kbps



Video

ID                               : 1

Format                           : AVC

Format/Info                      : Advanced Video Codec

Format profile                   : [email protected]

Format settings, CABAC           : No

Format settings, ReFrames        : 1 frame

Format settings, GOP             : M=1, N=37

Codec ID                         : avc1

Codec ID/Info                    : Advanced Video Coding

Duration                         : 55mn 17s

Bit rate mode                    : Variable

Bit rate                         : 410 Kbps

Maximum bit rate                 : 1 288 Kbps

Width                            : 476 pixels

Height                           : 360 pixels

Display aspect ratio             : 4:3

Frame rate mode                  : Constant

Frame rate                       : 29.970 fps

Color space                      : YUV

Chroma subsampling               : 4:2:0

Bit depth                        : 8 bits

Scan type                        : Progressive

Bits/(Pixel*Frame)               : 0.080

Stream size                      : 162 MiB (81%)



Audio

ID                               : 2

Format                           : AAC

Format/Info                      : Advanced Audio Codec

Format profile                   : LC

Codec ID                         : 40

Duration                         : 55mn 17s

Bit rate mode                    : Variable

Bit rate                         : 96.0 Kbps

Maximum bit rate                 : 136 Kbps

Channel(s)                       : 2 channels

Channel positions                : Front: L R

Sampling rate                    : 44.1 KHz

Compression mode                 : Lossy

Stream size                      : 38.0 MiB (19%)


Para mis rips usa el mejor reproductor 
http://www.gomlab.com/eng/











Seguirme si les gustaron las minas seguro que si



Nosotras seguimos a RAFADETH porque tu no?


Yngwie Malmsteen Live in tokio 85 2S
25 Puntos Score: 6.3/10
Visitas: 808 Favoritos: 1
Ver los usuarios que votaron...
11 Comentarios Yngwie Malmsteen Live in tokio 85 2S
alguien que hace verdaderos aportes, graxxxxxxxxx totales  
Gracias Rafadeth tuve un orgasmo auditivi
@elkin82 @ALVAREZ2  gracias chicos por sus comentarios cre?
Que aportaso men +5
como siempre gracias buen post viejo
como siempre genial!!! este ya lo habias subido??? porque baje tantas cosas tuyas que ya ni se si lo tengo
saludos
@fredydarko lo resubi pero ya esta condenado en la cuenta mediafire @fredydarko tiene los dias contados esta joya no se puede quedar offline
Metal por siempre GRACIAS por compartir..
@Marianoaxl  gracias socio ya empezaba a extra?
@Rafadeth   Gracias a Vos por compartir Material del Bueno
Te cuento que yo tampoco estoy pudiendo remotear Me estoy volviendo loco para terminar la Discografia de Black Sabbath hace una semana Gracias a los hosts que se pemiten en identi
Para dejar un comentario Registrate! o.. eres ya usuario? Accede!