Oops.. Este post tiene los enlaces eliminados!

Identi revisa las denuncias de los usuarios en busca de enlaces eliminados que no dejan descargar los archivos, este mensaje te informa que este post que estas viendo tiene los enlaces eliminados.

Usa el Buscador

Por favor, te recomendamos que uses el buscador para encontrar más alternativas.

Rhapsody Emerald Sword Saga The Complete Clips 2S

  • Categoría: Reciclaje
  • Publicado hace más de 4 años



Que tal kulebros de identi les traigo un dvd rip de esta banda power metalera que en esos años del Emerald sword me parecía muy buena y lo es pero últimamente a mi gusto deja mucho que desear hasta su nombre cambio un poco bueno dejo esta pequeña colección trae algunos de sus mejores temas disfruten.









General


Format                           : AVI
Format/Info                      : Audio Video Interleave
File size                        : 236 MiB
Duration                         : 26mn 54s
Overall bit rate                 : 1 225 Kbps
Writing application              : MEncoder SVN-r30881(20100311-gcc4.3.3)
Writing library                  : MPlayer

Video
ID                               : 0
Format                           : MPEG-4 Visual
Format profile                   : Advanced [email protected]
Format settings, BVOP            : 2
Format settings, QPel            : No
Format settings, GMC             : No warppoints
Format settings, Matrix          : Default (H.263)
Codec ID                         : XVID
Codec ID/Hint                    : XviD
Duration                         : 26mn 54s
Bit rate                         : 1 084 Kbps
Width                            : 352 pixels
Height                           : 240 pixels
Display aspect ratio             : 4:3
Frame rate                       : 29.970 fps
Standard                         : NTSC
Color space                      : YUV
Chroma subsampling               : 4:2:0
Bit depth                        : 8 bits
Scan type                        : Progressive
Compression mode                 : Lossy
Bits/(Pixel*Frame)               : 0.428
Stream size                      : 209 MiB (88%)
Writing library                  : XviD 1.2.1 (UTC 2008-12-04)

Audio
ID                               : 1
Format                           : MPEG Audio
Format version                   : Version 1
Format profile                   : Layer 3
Mode                             : Joint stereo
Mode extension                   : MS Stereo
Codec ID                         : 55
Codec ID/Hint                    : MP3
Duration                         : 26mn 54s
Bit rate mode                    : Constant
Bit rate                         : 128 Kbps
Channel(s)                       : 2 channels
Sampling rate                    : 44.1 KHz
Compression mode                 : Lossy
Delay relative to video          : 33ms
Stream size                      : 24.6 MiB (10%)
Alignment                        : Aligned on interleaves
Interleave, duration             : 26 ms (0.78 video frame)
Interleave, preload duration     : 522 ms


Para mis rips usa el mejor reproductor 
http://www.gomlab.com/eng/










seguirme si les gustaron las minas Seguro Que si



Nosotras seguimos a RAFADETH  porque tu no?

Rhapsody Emerald Sword Saga The Complete Clips 2S
5 Puntos Score: 5/10
Visitas: 860 Favoritos: 2
Ver los usuarios que votaron...
4 Comentarios Rhapsody Emerald Sword Saga The Complete Clips 2S
Escucho Rhapsody desde sus inicios. Que gran banda!
Excelente aporte. Faltar?
Genial aporte Rafa  
por q parece q tienen la cara sucia en la foto??? se les salio la cadena de la bici cuando iban a filmar los clips o que???   .... son grosos los locos ...aunq algo repetitivos por ahi tambien....
Para dejar un comentario Registrate! o.. eres ya usuario? Accede!