Entrevista con el vampiro 1994[1080p][Lat-Eng][GF]





  

 


El vampiro Lestat fluye a través de los años como un río de sangre que mantiene su existencia. Cuando así lo desea, concede a sus víctimas el don de la inmortalidad, lo quieran o no, chupándoles la sangre y convirtiéndoles también en vampiros. A finales del siglo XVIII llega al mundo de Lestat un mortal, desolado por la pérdida de su esposa y de su hija de corta edad, un tal Louis de Pointe. Doscientos años más tarde, a finales del siglo XX, en San Francisco, Louis decide contar la historia, una historia de deseo, amor, anhelo, pena, terror y éxtasis de un vampiro, a un joven reportero, Daniel Malloy, que conforme escucha de labios de Louis lo que ha sido su vida, empieza a temer cada vez más por la suya propia...










 TÍTULO ORIGINAL: Interview with the vampire: The vampire chronicles
DIRECCIÓN:Neil Jordan
AÑO:1994
PAÍS: Estados Unidos
PRODUCTORA:  Geffen Pictures para Warner Bros.
GÉNERO:Terror, Drama
Guión: Anne Rice
 Distribuidora: Republic Pictures (I)
 Productora: Geffen Pictures

Formato: MKV
Resolucion: 1920x1080
Peso: 3.82 GB Aprox.
Calidad: Excelente
Idiomas: Latino, Inglés. 










Video


ID                               : 1
Format                           : AVC
Format/Info                      : Advanced Video Codec
Format profile                   : [email protected]
Format settings, CABAC           : Yes
Format settings, ReFrames        : 4 frames
Muxing mode                      : Header stripping
Codec ID                         : V_MPEG4/ISO/AVC
Duration                         : 2h 2mn
Bit rate                         : 3 826 Kbps
Width                            : 1 916 pixels
Height                           : 1 080 pixels
Display aspect ratio             : 16:9
Frame rate                       : 23.976 fps
Color space                      : YUV
Chroma subsampling               : 4:2:0
Bit depth                        : 8 bits
Scan type                        : Progressive
Bits/(Pixel*Frame)               : 0.077
Stream size                      : 3.20 GiB (84%)






Audio #1


ID                               : 2
Format                           : AC-3
Format/Info                      : Audio Coding 3
Mode extension                   : CM (complete main)
Muxing mode                      : Header stripping
Codec ID                         : A_AC3
Duration                         : 2h 2mn
Bit rate mode                    : Constant
Bit rate                         : 448 Kbps
Channel(s)                       : 6 channels
Channel positions                : Front: L C R, Side: L R, LFE
Sampling rate                    : 48.0 KHz
Bit depth                        : 16 bits
Compression mode                 : Lossy
Stream size                      : 393 MiB (10%)
Title                            : English
Language                         : English
Default                          : No
Forced                           : No





Audio #2



ID                               : 14
Format                           : AC-3
Format/Info                      : Audio Coding 3
Mode extension                   : CM (complete main)
Muxing mode                      : Header stripping
Codec ID                         : A_AC3
Duration                         : 2h 2mn
Bit rate mode                    : Constant
Bit rate                         : 192 Kbps
Channel(s)                       : 1 channel
Channel positions                : Front: C
Sampling rate                    : 48.0 KHz
Bit depth                        : 16 bits
Compression mode                 : Lossy
Delay relative to video          : 400ms
Stream size                      : 168 MiB (4%)
Language                         : Spanish
Default                          : Yes
Forced                           : No
 



































http://www.gamefront.com/files/22548696/ECEVBD_part1_rar

http://www.gamefront.com/files/22549182/ECEVBD_part2_rar

http://www.gamefront.com/files/22549719/ECEVBD_part3_rar

http://www.gamefront.com/files/22550254/ECEVBD_part4_rar

http://www.gamefront.com/files/22550765/ECEVBD_part5_rar

http://www.gamefront.com/files/22556574/ECEVBD_part6_rar

http://www.gamefront.com/files/22557493/ECEVBD_part7_rar

http://www.gamefront.com/files/22558142/ECEVBD_part8_rar




pablo44om
Entrevista con el vampiro 1994[1080p][Lat-Eng][GF]
60 Puntos Score: 8.6/10
Visitas: 5526 Favoritos: 11
Ver los usuarios que votaron...
44 Comentarios Entrevista con el vampiro 1994[1080p][Lat-Eng][GF]
Gracias, sigue asi posteando movies con esta calidad y tama?
Hola. Se que tal vez es mucho pedir pero podrias subirla en una calidad menor? Saludos.  
@_shinku_

Si en lo personal me gusta mucho.  
vale men muchas gracia por tan estupenda y entretenida pelicula en tan gran calidad **  
Muy buena pelicula muy buen aporte amigo, ya la tengo pero no en HD asi que la descargare es lo maximo esta calidad muchas gracias por este aportazo es lo maximo la alta definicion.
+10! Excelente aporte!
Ya tengo peli para el 1 de noviembre  
Gracias hermano, siempre la hab?
Amigo gracias por responderme,te deseo suerte y saludos
Hola bro. Gracias por contestar, afortunadamente la encontre hace poco igual en DVDrip, igual gracias y sigue con estos buenos aportes. Saludos!!  
que buena peli loco justo tenia unas ganas de verla joya joya muy bueno gracias
@palermojr

Por nada amigo, me alegra que te guste el aporte, gracias por comentar.  
APORTASO !!!!!! esta pelicula esta muy bien hecha, y en esta calidad UFFFF   gracias por compartir  
@Ivantrovic

Por nada amigo, la verdad es de mis peliculas favoritas, gracias por comentar.  
tu pelicula esta en ingles solamente
la transforme a con fremake video converter para verla en mi ps3 y solo da opcion de ingles la transforme de todos modos y era correcto solo esta en ingles no sirve
@lafh0210

Amigo tiene dos audios, para codificarla  para verla en el ps3 te recomiendo el Ts muxer la pasas a M2TS y listo, si lo tienes Con CFW utiliza showtime y puedes ver MKV sin problemas.  
gracias hermano 5+
Hola amigo tengo problemas para descargar las partes 2 y 4. podrias fijarte o resuvirlas?
@aramis_exe

Ya las revise estan correctas te recomiendo usar el programa wifi protector para cambiar tu ip.  
@pablo44om
el WIFI PROTECTOR sirve para Cambiar mi IP por una de ESTADOS UNIDOS?
Excelente, descargo veo que tal y puntos  
Saludos.
Esta si es una buena y digna pelicula   y en HD Muchisimas Gracias!!!!!!!!!!
Se me hizo muy lento la descarga con el programa que dijiste, no la voy a bajar pero te dejo puntos  
Saludos.
wenisisisissima............ no tuve problemas al descargar...
Muchas gracias... y excelente aporte....  
buena calidad de la pelicual +10
Hola amigo, podr?
@Sub_cero

Amigo acabo de revisar los links y estan perfectamente operativos.  
Alguien quien ya lo halla bajado lo puede compartir en MEGA, en mi pais no se puede descargar de GameFront
yo hice un torrent de esta pel?
amigo, no puedo descargar de GameFront,,, sube a Mega
link caidos subelo a mega  
Todos estan en linea amigo, estoy descargando perfectamente intente hacer VPN con WiFi protector.  

no me baja la peli.......sale caido....alguien que lo haya subido en otro server ?? por favor
u_u
Para dejar un comentario Registrate! o.. eres ya usuario? Accede!