Spartacus [Temp 1 y 2] [Bdrip latino]

Bueno amigos, en esta ocación les traigo esta serie en BDrip e idioma español latino... Dependiendo de la aceptación de esta misma, quizás suba una mejor versión, tal como HD 720p o FullHD 1080p.

Bueno pasemos al post:



Sinopsis:

Serie de TV (2010). 13 episodios. Traicionado por su país. Convertido en esclavo. Renacido como guerrero. Spartacus protagoniza la historia más gráfica y visceral del gladiador más famoso de Roma. Con un reparto estelar, asistimos a una mezcla única de acción, efectos gráficos y brutales batallas. Separado del amor de su vida, Spartacus tendrá que luchar por su supervivencia, participando en un espectáculo, donde el principal entretenimiento es la muerte. En un mundo de corrupción, violencia, sexo y fama acabará interviniendo en política y vivirá atormentado por el deseo de venganza.

Ficha técnica:


TÍTULO ORIGINAL: Spartacus: Blood and Sand (TV Series)
OTROS TÍTULOS: Spartacus: Sangre y Arena / Espartaco: Sangre y Arena
AÑO: 2010
DURACIÓN: 55 min.
PAÍS: USA
DIRECTOR: Steven S. DeKnight (Creator), Rick Jacobson, Michael Hurst, Jesse Warn, Glenn Standring
GUIÓN: Brent Fletcher, Aaron Helbing, Todd Helbing, Miranda Kwok, Steven S. DeKnight, Tracy Bellomo, Andrew Chambliss, Daniel Knauf
MÚSICA: Joseph LoDuca
FOTOGRAFÍA: Aaron Morton
REPARTO: Andy Whitfield, Lucy Lawless, John Hannah, Manu Bennett, Peter Mensah, Nick Tarabay, Viva Bianca, Lesley-Ann Brandt, Jai Courtney, Erin Cummings, Craig Walsh-Wrightson, Eka Darville, Antonio Te Maioha, Ande Cunningham, Daniel Feuerriegel, Katrina Law, Brooke Williams, David Austin, Janine Burchett, John Bach, Lliam Powell
PRODUCTORA: Starz Media / Starz Productions; Productor: Sam Raimi
GÉNERO: Serie de TV. Acción | Antigua Roma. Esclavitud. Erótico


Información Técnica: (Cabe destacar que solo la pestaña General varía dependiendo el capítulo, ya sea nombre, peso y duración).


General
Complete name : Spartacus.Blood.and.Sand.S01E01.2010.BDRip.LATiNO.XviD.avi
Format : AVI
Format/Info : Audio Video Interleave
File size : 548 MiB
Duration : 54mn 56s
Overall bit rate : 1 396 Kbps

Video
ID : 0
Format : MPEG-4 Visual
Format profile : Advanced [email protected]
Format settings, BVOP : 2
Format settings, QPel : No
Format settings, GMC : No warppoints
Format settings, Matrix : Default (H.263)
Codec ID : XVID
Codec ID/Hint : XviD
Duration : 54mn 56s
Bit rate : 1 194 Kbps
Width : 640 pixels
Height : 352 pixels
Display aspect ratio : 16:9
Frame rate : 23.976 fps
Color space : YUV
Chroma subsampling : 4:2:0
Bit depth : 8 bits
Scan type : Progressive
Compression mode : Lossy
Bits/(Pixel*Frame) : 0.221
Stream size : 469 MiB (86%)
Writing library : XviD 1.2.1 (UTC 2008-12-04)

Audio
ID : 1
Format : AC-3
Format/Info : Audio Coding 3
Format profile : Dolby Digital
Mode extension : CM (complete main)
Codec ID : 2000
Duration : 54mn 56s
Bit rate mode : Constant
Bit rate : 192 Kbps
Channel(s) : 2 channels
Channel positions : Front: L R
Sampling rate : 48.0 KHz
Bit depth : 16 bits
Compression mode : Lossy
Stream size : 75.4 MiB (14%)
Alignment : Split accross interleaves
Interleave, duration : 42 ms (1.00 video frame)
Interleave, preload duration : 500 ms.

Capturas.





Links de descarga: 1 link por capítulo. (gamefront)



Para extraer el pass es krstno.
Spartacus [Temp 1 y 2] [Bdrip latino]
20 Puntos Score: 6.7/10
Visitas: 5739 Favoritos: 11
Ver los usuarios que votaron...
37 Comentarios Spartacus [Temp 1 y 2] [Bdrip latino]
Buen aporte amigo ya las tengo todas pero se agradece el aporte  
muy buena espero te animes y la subas en 1080p gracias por el aporte  
muy buena serie, ya la tengo en esta calidad pero espero q la subas en 720p e idioma original.
te dejo algo de aceptaci?
@17121986 Gracias amigo, en algunos d?
muy buena serie!!!gracias
ok viejo. siguiendo...!
muchas gracias, yo tengo muchas ganas de verla en 1080 a ver si te animas a subirla estare al pendiente. Gracias!
@piticgm de nada amigo, q la disfrutes
@_mauro_ grax amigo
@Meib S?
te lo agradesco , muy buen aporte amigo
yo solo e visto la primera temporada y uno que otro capitulo de la 2
que bueno que la subiste en gamefront y esperando la 3  gracias  
Gracias esperando la vercion 1080p jejeje ya descargue todo muchas gracias  
THANKSSSSSS ESTA GENIAL!!!!!!!
capitulos 5 y 6 estan subtitulados con idioma en ingles... gracias por el aporte.
Muchas gracias por ambos aportes... me llevo la segunda temporada que es la que me faltaba....  
man baje la 7,8,9 y sale error se ha cambiado la clave o algo ??? rpd please !
Primera, me sale error para este tipo de archivo, o rar no soportado, pero bajo por completo, q podria ser ?
@skynnex Amigo, tienes raz?
Hola Amigo, sabes hace mas de 4 dias he intentado hacer la descarga ya sea con jdonwloader o desde los link de descarga y me indica que el servidor tiene problemas o no se encuentra el archivo. podrias indicarme que debo hacer, veo que algunas personas si pudieron hacer la descarga, gracias por tu ayuda.
@dengar La verdad me pasa lo mismo con gamefront, no queda m?
Que lastima la iba a bajar pero no da en Latino   , no la tendras en idioma original?
@krstno ok ojala la puedas subir  
estaremos esperando .. gracias por tu aporte..
amigo habras podido subir en audio original??
7 - 8 - 9 para cuando???
Hola amigo, seguimos esperando los capitulos 7, 8 y 9..@krstno
como la bajo, porque el jdownloader me dice que tiene problemas con el servidor y si lo descargo directo me tira error la pagina. ayuda
+10- para cuando el 7,8 y 9
Cita Roq88: Mostrar
NO SE PUEDE DESCARGAR DE GAMEFRONT POR QUE EL SERVIDOR BLOQUEO LAS DESCARGAS PARA ALGUNOS PAISES.
aqui una ayuda para descargar de gamefront
http://www.youtube.com/watch?v=ZOe0vqUIv9Q
Amigo para cuando tuenes los capitulos los que faltan o ya no los vas ah subir????????
Para dejar un comentario Registrate! o.. eres ya usuario? Accede!