Oops.. Este post tiene los enlaces eliminados!

Identi revisa las denuncias de los usuarios en busca de enlaces eliminados que no dejan descargar los archivos, este mensaje te informa que este post que estas viendo tiene los enlaces eliminados.

Usa el Buscador

Por favor, te recomendamos que uses el buscador para encontrar más alternativas.

Megadeth 1998 09 26 Sao Paulo Brazil PL

  • Categoría: Reciclaje
  • Publicado hace más de 4 años















HOLA Y ADIOS NO TENGO GANAS DE COMENTAR AHI DESCARGUEN COMENTEN Y SOBRE TODO DEJEN PUNTOS PETARDOS 


01 A Secret Place

02 Holy Wars...The Punishment Due

03 Reckoning Day

04 Wake Up Dead

05 Hangar 18

06 Sin

07 A Tout Le Monde

08 Almost Honest

09 Trust

10 Sweating Bullets

11 Symphony Of Destruction




General

Format                           : MPEG-4

Format profile                   : Base Media / Version 2

Codec ID                         : mp42

File size                        : 348 MiB

Duration                         : 46mn 16s

Overall bit rate                 : 1 050 Kbps

Encoded date                     : UTC 2012-10-27 04:35:55

Tagged date                      : UTC 2012-10-27 04:36:11

Writing application              : mp4creator 1.6.1d


Video

ID                               : 1

Format                           : AVC

Format/Info                      : Advanced Video Codec

Format profile                   : [email protected]

Format settings, CABAC           : No

Format settings, ReFrames        : 1 frame

Codec ID                         : avc1

Codec ID/Info                    : Advanced Video Coding

Duration                         : 46mn 16s

Bit rate mode                    : Variable

Bit rate                         : 890 Kbps

Width                            : 480 pixels

Height                           : 368 pixels

Original height                  : 360 pixels

Display aspect ratio             : 4:3

Original display aspect ratio    : 4:3

Frame rate mode                  : Variable

Frame rate                       : 29.970 fps

Minimum frame rate               : 29.960 fps

Maximum frame rate               : 29.970 fps

Color space                      : YUV

Chroma subsampling               : 4:2:0

Bit depth                        : 8 bits

Scan type                        : Progressive

Bits/(Pixel*Frame)               : 0.168

Stream size                      : 295 MiB (85%)


Audio

ID                               : 2

Format                           : AAC

Format/Info                      : Advanced Audio Codec

Format profile                   : LC

Codec ID                         : 40

Duration                         : 46mn 15s

Bit rate mode                    : Variable

Bit rate                         : 158 Kbps

Maximum bit rate                 : 187 Kbps

Channel(s)                       : 2 channels

Channel positions                : Front: L R

Sampling rate                    : 44.1 KHz

Compression mode                 : Lossy

Stream size                      : 52.1 MiB (15%)




http://www.putlocker.com/file/6AB54D674CDCADE8




seguirme si les gustaron las minas Seguro Que si



Nosotras seguimos a RAFADETH  porque tu no?

Megadeth 1998 09 26 Sao Paulo Brazil PL
1 Puntos Score: 1/10
Visitas: 240 Favoritos: 0
Ver los usuarios que votaron...
1 Comentarios Megadeth 1998 09 26 Sao Paulo Brazil PL
disculpas a los que bajaron este v?
Para dejar un comentario Registrate! o.. eres ya usuario? Accede!