educap
"Por qué algo y no más bien nada?"

1975-Fantozzi



El que lo conoce no lo va a dudar en descargar
Para el que no la conozca esta recomendada: soy bastante serio, pero en mi capacidad de reir 100 % me hizo reir 99 %
Lo curioso es que ese amor no correspondido de la señorita Silvani me conmovia de igual grado, y no se si no solte un lagrimon. Un dia un italiano que encontre en el camino le comente que de italia podia hablarle de roma, de algunos emperadores, del latin... de Fantozzi, y se conmovió haberlo escuchado nombrar por un argentino...
Aca tendriamos a porcel y Olmedo, A mingo y Anibal, en mexico a Cantinflas: alli esta Fantozzi...


















Fantozzi es una película de 1975 dirigida por Luciano Salce. Es el primer capítulo de la exitosa saga que narra las vicisitudes del personaje Ugo Fantozzi, interpretado por Paolo Villaggio.
Junto con la siguiente El segundo trágico Fantozzi , se considera el pináculo de la serie y se nota la participación de actores que son susceptibles a entrar en episodios cómicos: Plinio Fernando, Anna Mazzamauro y Gigi Reder, entre otros.
Fantozzi se puede considerar, en forma de caricatura, el símbolo de la clase media italiana de los años 70, descontenta y frustrada en el trabajo y la familia.
El éxito de esta película y la saga que ha generado se ha mantenido prácticamente sin cambios a través de los años, contribuyendo al crédito Paolo Villaggio como uno de los principales autores de películas cómicas y actores del cine italiano.

Mas info en...

http://es.wikipedia.org/wiki/Fantozzi_(pel%C3%ADcula)






Un ejemplo de la peli



http://www.youtube.com/watch?v=-S4x9ww3bo4



General
Complete name                    : C:UsersEduardoDownloadsuploads ed1975-Fantozzi.avi
Format                           : AVI
Format/Info                      : Audio Video Interleave
File size                        : 701 MiB
Duration                         : 1h 43mn
Overall bit rate                 : 948 Kbps
Writing application              : Nandub v1.0rc2
Writing library                  : Nandub build 1852/release
Video
ID                               : 0
Format                           : MPEG-4 Visual
Format settings, BVOP            : 1
Format settings, QPel            : No
Format settings, GMC             : No warppoints
Format settings, Matrix          : Default (H.263)
Muxing mode                      : Packed bitstream
Codec ID                         : DX50
Codec ID/Hint                    : DivX 5
Duration                         : 1h 43mn
Bit rate                         : 853 Kbps
Width                            : 544 pixels
Height                           : 304 pixels
Display aspect ratio             : 16:9
Frame rate                       : 25.000 fps
Color space                      : YUV
Chroma subsampling               : 4:2:0
Bit depth                        : 8 bits
Scan type                        : Progressive
Compression mode                 : Lossy
Bits/(Pixel*Frame)               : 0.206
Stream size                      : 631 MiB (90%)
Writing library                  : DivX 5.1.1 (Maupiti) (UTC 2003-11-19)
Audio
ID                               : 1
Format                           : MPEG Audio
Format version                   : Version 1
Format profile                   : Layer 3
Mode                             : Joint stereo
Mode extension                   : MS Stereo
Codec ID                         : 55
Codec ID/Hint                    : MP3
Duration                         : 1h 43mn
Bit rate mode                    : Variable
Bit rate                         : 82.3 Kbps
Nominal bit rate                 : 128 Kbps
Channel(s)                       : 2 channels
Sampling rate                    : 48.0 KHz
Compression mode                 : Lossy
Stream size                      : 60.8 MiB (9%)
Alignment                        : Aligned on interleaves
Interleave, duration             : 24 ms (0.60 video frame)
Interleave, preload duration     : 476 ms
Writing library                  : LAME3.90.
Encoding settings                : -m j -V 0 -q 5 -lowpass 15.3 --abr 128








PutLocker
Uploader educap

































Enlaces De Descarga


educap




La forma de narrar me recuerda una cosa que salia en la revista humor alla en los 80s
donde se mostraba una accion y abajo se escribia narrando algo sobre el hecho... la busco y no la encuentro, sobre todo recuerdo creo que se llamava la villa olimpica, donde se narraba algun juego olimpico en las villas, por ejemplo la carrera de cien metros coincidia con la corrida al ladron de la cartera, la de salto en garrocha era el salto para cruzar el zanjon... el que la tenga que me avise









1975-Fantozzi
15 Puntos Score: 7.5/10
Visitas: 1888 Favoritos: 4
Ver los usuarios que votaron...
16 Comentarios 1975-Fantozzi
fantozzi es una leyenda en italia.. es un cago de risa.. buenissimo el post
jajajjaajja fantozzi  cornuuuttooooo jajajaja gracias
huu mi viejo se va alegrar viendo tu post   te dejo unos pts por el aporte  
Porcel y Olmedo   jamas me hicieron re?
Cita tito9090: Mostrar
bueno entonces que bueno que me gusto quiere decir que no soy el unico  

Cita malvinas82: Mostrar
jajaja fantizzi no era el cornuto, jejeje en que parte...


Cita pioneer: Mostrar

me alegro ojala uqe este mejor que ayer eso es bueno  
Cita joseamat: Mostrar
Cita educap: Mostrar
tengo toda la filmografia de Paolo Villaggio o fantozzi
lo dice en la pelicula "Fantozzi contro tutti" ,fantozzi contra todos luego de que choca un auto en la puerta de
@malvinas82 ahhh ok.
si vi algunas inolvidable tratando de armar una carpa corriendo 5 kms para pegar el grito.... que lastima que esas pelis no lse las consigue sino... alguna vez se podrian subir jejejeje
Cita educap: Mostrar

yo las tengo todas con sub y todo lo que pasa es que no se bien como subirlas si me tiras una punta o tuto las subo
Mas que interesante, estos son los post que valen mucho pero los users pasan por alto. Cine diferente!!!
Van 10
Cita Josealf: Mostrar
gracias capo!!! por suerte hay uno entre tantso que hacen que la subida valga la pena  
Hey!!!  Tante graze mio caro!

Grande Educap!

 
...aunque si pudiera resubirla ser?
Podes resubirla por favor ? Me muero por ver esta peli de nuevo que hace a?
Para dejar un comentario Registrate! o.. eres ya usuario? Accede!