Oops.. Este post tiene los enlaces eliminados!

Identi revisa las denuncias de los usuarios en busca de enlaces eliminados que no dejan descargar los archivos, este mensaje te informa que este post que estas viendo tiene los enlaces eliminados.

Usa el Buscador

Por favor, te recomendamos que uses el buscador para encontrar más alternativas.

Michael Romeo The Guitar Chapter Rip 2S

  • Categoría: Reciclaje
  • Publicado hace más de 4 años















HOLA Y ADIOS NO TENGO GANAS DE COMENTAR AHI DESCARGUEN COMENTEN Y SOBRE TODO DEJEN PUNTOS PETARDOS 


General


General

 

Format                           : MPEG-4

Format profile                   : Base Media / Version 2

Codec ID                         : mp42

File size                        : 163 MiB

Duration                         : 45mn 24s

Overall bit rate                 : 501 Kbps

Encoded date                     : UTC 2012-10-26 14:37:37

Tagged date                      : UTC 2012-10-26 14:38:26

Writing application              : mp4creator 1.6.1d


Video

ID                               : 1

Format                           : AVC

Format/Info                      : Advanced Video Codec

Format profile                   : [email protected]

Format settings, CABAC           : No

Format settings, ReFrames        : 1 frame

Codec ID                         : avc1

Codec ID/Info                    : Advanced Video Coding

Duration                         : 45mn 24s

Bit rate mode                    : Variable

Bit rate                         : 399 Kbps

Width                            : 352 pixels

Height                           : 240 pixels

Display aspect ratio             : 3:2

Frame rate mode                  : Variable

Frame rate                       : 29.930 fps

Minimum frame rate               : 29.920 fps

Maximum frame rate               : 29.930 fps

Standard                         : NTSC

Color space                      : YUV

Chroma subsampling               : 4:2:0

Bit depth                        : 8 bits

Scan type                        : Progressive

Bits/(Pixel*Frame)               : 0.158

Stream size                      : 130 MiB (80%)




Audio

ID                               : 2

Format                           : AAC

Format/Info                      : Advanced Audio Codec

Format profile                   : LC

Codec ID                         : 40

Duration                         : 45mn 23s

Bit rate mode                    : Variable

Bit rate                         : 99.4 Kbps

Maximum bit rate                 : 123 Kbps

Channel(s)                       : 2 channels

Channel positions                : Front: L R

Sampling rate                    : 44.1 KHz

Compression mode                 : Lossy

Stream size                      : 32.3 MiB (20%)





http://www.2shared.com/video/rI6C8JH-/Michael_Romeo_Guitar_Chapter.html




seguirme si les gustaron las minas Seguro Que si




Nosotras seguimos a RAFADETH  porque tu no?

Michael Romeo The Guitar Chapter Rip 2S
7 Puntos Score: 3.5/10
Visitas: 1004 Favoritos: 2
Ver los usuarios que votaron...
3 Comentarios Michael Romeo The Guitar Chapter Rip 2S
150 Visitas y ni un Comentario...
  Muchisimas Gracias @Rafadeth por Compartir Tremendo Material
Gracias por tremendo aporte!!!!!!!!!!!!!!
Gran aporte...  
Para dejar un comentario Registrate! o.. eres ya usuario? Accede!