Oops.. Este post tiene los enlaces eliminados!

Identi revisa las denuncias de los usuarios en busca de enlaces eliminados que no dejan descargar los archivos, este mensaje te informa que este post que estas viendo tiene los enlaces eliminados.

Usa el Buscador

Por favor, te recomendamos que uses el buscador para encontrar más alternativas.

Joe Satriani Live in California 2006 Rip 2S

  • Categoría: Reciclaje
  • Publicado hace más de 4 años














HOLA Y ADIOS NO TENGO GANAS DE COMENTAR AHI DESCARGEN COMENTEN Y SOBRE TODO DEJEN PUNTOS PETARDOS

El MAESTRO SATRIANI QUE MAS SE PUEDE DECIR







Joe Satriani, live in Anaheim, California, USA 2nd May, 2006.

1. Flying In A Blue Dream

2. The Extremist

3. Redshift Riders

4. Cool #9

5. A Cool New Way

6. Satch Boogie

7. Super Colossal

8. Just Like Lightnin'

9. Ice 9

10. One Robot's Dream

11. Ten Words

12. The Mystical Potato Head Groove Thing

13. The Meaning of Love

14. Made of Tears

15. Circles

16. Always With Me, Always With You

17. Surfing With The Alien

18. Crowd Chant

19. Summer Song


General


Format                           : MPEG-4
Format profile                   : Base Media / Version 2
Codec ID                         : mp42
File size                        : 768 MiB
Duration                         : 2h 9mn
Overall bit rate                 : 827 Kbps
Encoded date                     : UTC 2012-10-25 16:44:29
Tagged date                      : UTC 2012-10-25 16:45:43
Writing application              : mp4creator 1.6.1d

Video
ID                               : 1
Format                           : AVC
Format/Info                      : Advanced Video Codec
Format profile                   : [email protected]
Format settings, CABAC           : No
Format settings, ReFrames        : 1 frame
Codec ID                         : avc1
Codec ID/Info                    : Advanced Video Coding
Duration                         : 2h 9mn
Bit rate mode                    : Variable
Bit rate                         : 667 Kbps
Width                            : 640 pixels
Original width                   : 638 pixels
Height                           : 368 pixels
Original height                  : 360 pixels
Display aspect ratio             : 16:9
Original display aspect ratio    : 16:9
Frame rate mode                  : Variable
Frame rate                       : 29.970 fps
Minimum frame rate               : 29.960 fps
Maximum frame rate               : 29.970 fps
Color space                      : YUV
Chroma subsampling               : 4:2:0
Bit depth                        : 8 bits
Scan type                        : Progressive
Bits/(Pixel*Frame)               : 0.094
Stream size                      : 619 MiB (81%)
Encoded date                     : UTC 2012-10-25 16:44:29
Tagged date                      : UTC 2012-10-25 16:45:31

Audio
ID                               : 2
Format                           : AAC
Format/Info                      : Advanced Audio Codec
Format profile                   : LC
Codec ID                         : 40
Duration                         : 2h 9mn
Bit rate mode                    : Variable
Bit rate                         : 158 Kbps
Maximum bit rate                 : 232 Kbps
Channel(s)                       : 2 channels
Channel positions                : Front: L R
Sampling rate                    : 44.1 KHz
Compression mode                 : Lossy
Stream size                      : 146 MiB (19%)
Encoded date                     : UTC 2012-10-25 16:45:33
Tagged date                      : UTC 2012-10-25 16:45:43















seguirme si les gustaron las minas Seguro Que si







Nosotras seguimos a RAFADETH  porque tu no?



Joe Satriani Live in California 2006 Rip 2S
5 Puntos Score: 5/10
Visitas: 899 Favoritos: 3
Ver los usuarios que votaron...
12 Comentarios Joe Satriani Live in California 2006 Rip 2S
Amigo tus aportes est?
Es un crack el pelado!!! Lo bajar?
@Mael @Caffenio. gracias por pasar pero es decepcionante postear algo y qu sea totalmente casi dejado en el olvido
Amigo, es un excelente aporte!!! No va a quedar en el olvido. El Joe es maestro de guitarristas. Y es una fiera con el instrumento. No pretendo entrar en pol?
muy bueno !!!!!!!!!!!!!!!!!! grax  
Es un maestro. Bajando y a disfrutar. Gracias.
Muchisimas Gracias Por Compartir este Material
buenisimo el aporte. no pude bajar el link 4. gracias!!!!!!
@fabiopaulo si ya revise es cosa de estos servers de 2da yo trate y si sirvio solo que baja lento pero sirve intenta varias veces
@fabiopaulo J SatriLi2006.part04.rar23.2 KB/s - 14.6 MB de 75.0 MB, Faltan 44 minutos
http://dc187.2shared.com/download/7eyBepHW/J_SatriLi2006part04.rar?tsid=20121028-031716-a9dd0ba8
lento pero seguro
gracias!!!!!!!!!!!!!!!!
Para dejar un comentario Registrate! o.. eres ya usuario? Accede!